<?xml version="1.0" standalone="no"?>
<!DOCTYPE svg PUBLIC "-//W3C//DTD SVG 1.1//EN" "http://www.w3.org/Graphics/SVG/1.1/DTD/svg11.dtd" >
<svg>
<metadata>
Created by FontForge 20090914 at Fri Jun 22 15:31:59 2012
 By www-data
Generated by Fontographer 4.1
</metadata>
<defs>
<font id="Wyekan" horiz-adv-x="0" >
  <font-face 
    font-family="W_yekan"
    font-weight="400"
    font-stretch="normal"
    units-per-em="1100"
    panose-1="0 0 4 0 0 0 0 0 0 0"
    ascent="880"
    descent="-220"
    bbox="-280.502 -664 1143 1086.04"
    underline-thickness="20"
    underline-position="-123"
    unicode-range="U+0020-U+FE87"
  />
<missing-glyph horiz-adv-x="550" 
d="M69 0v700h412v-700h-412zM138 69h275v562h-275v-562z" />
    <glyph glyph-name="uniFE50" unicode="&#xfe5b;&#xfe00;" horiz-adv-x="517" 
d="M458 135c0 -35.333 -8.66602 -63.333 -25.999 -84c-10 -14.667 -25.333 -28 -46 -40c-22.667 -7.33301 -45 -11 -67 -11h-83c-116 0 -174 45 -174 135v429h88v-391c0 -39.333 5.33301 -64 16 -74c7.33301 -6.66699 30.666 -10 69.999 -10h76c24 0 41.333 6.66699 52 20
c4.66699 18.667 7 40 7 64v391h87v-429z" />
    <glyph glyph-name="uniFE51" unicode="&#xfe5a;&#xfe00;" horiz-adv-x="517" 
d="M531 0c-50 0 -90.333 19.001 -121 57.001c-29.333 -38 -68.666 -57 -117.999 -57h-82c-114 0 -171 45 -171 135v429h86v-391c0 -20 1.16699 -35.667 3.5 -47s6.5 -20.333 12.5 -27s29 -10 69 -10h76c23.333 0 40.666 6.66699 51.999 20c2.66699 6.66699 4 15.667 4 27
c0 2.66699 0.666992 8.16699 2 16.5s2 15.166 2 20.499v391h88v-399c0 -32 9 -53.333 27 -64c14 -8 37.333 -12 70 -12v-89z" />
    <glyph glyph-name="uniFE52" unicode="&#xfe5b;&#xfe01;" horiz-adv-x="517" 
d="M458 135c0 -35.333 -8.66602 -63.333 -25.999 -84c-10 -14.667 -25.333 -28 -46 -40c-22.667 -7.33301 -45 -11 -67 -11h-83c-116 0 -174 45 -174 135v429h88v-391c0 -39.333 5.33301 -64 16 -74c7.33301 -6.66699 30.666 -10 69.999 -10h76c24 0 41.333 6.66699 52 20
c4.66699 18.667 7 40 7 64v391h87v-429zM320.001 616h-220.997l-51 -4c-14 -3.33301 -24 -7 -30 -11c-10.667 -11.333 -20.334 -27.333 -29.001 -48l-81 31l23 46c11.333 20 21.666 33.833 30.999 41.5s24.666 14.5 45.999 20.5c13.333 3.33301 34.666 6 63.999 8
c20.667 0.666992 69.334 1 146.001 1h102v-85z" />
    <glyph glyph-name="exclamdown" unicode="&#xfe5a;&#xfe01;" horiz-adv-x="517" 
d="M531 0c-50 0 -90.333 19.001 -121 57.001c-29.333 -38 -68.666 -57 -117.999 -57h-82c-114 0 -171 45 -171 135v429h86v-391c0 -20 1.16699 -35.667 3.5 -47s6.5 -20.333 12.5 -27s29 -10 69 -10h76c23.333 0 40.666 6.66699 51.999 20c2.66699 6.66699 4 15.667 4 27
c0 2.66699 0.666992 8.16699 2 16.5s2 15.166 2 20.499v391h88v-399c0 -32 9 -53.333 27 -64c14 -8 37.333 -12 70 -12v-89zM320 616.001h-220.997l-51 -4c-14 -3.33301 -24 -7 -30 -11c-10.667 -11.333 -20.334 -27.333 -29.001 -48l-81 31l23 46
c11.333 20 21.666 33.833 30.999 41.5s24.666 14.5 45.999 20.5c13.333 3.33301 34.666 6 63.999 8c20.667 0.666992 69.334 1 146.001 1h102v-85z" />
    <glyph glyph-name="cent" unicode="&#xfe5b;&#xfe03;" horiz-adv-x="517" 
d="M458 135c0 -35.333 -8.66602 -63.333 -25.999 -84c-10 -14.667 -25.333 -28 -46 -40c-22.667 -7.33301 -45 -11 -67 -11h-83c-116 0 -174 45 -174 135v429h88v-391c0 -39.333 5.33301 -64 16 -74c7.33301 -6.66699 30.666 -10 69.999 -10h76c24 0 41.333 6.66699 52 20
c4.66699 18.667 7 40 7 64v391h87v-429zM228.001 678l-149 -75l-12 24l50 27c-30 16 -45 37.333 -45 64c0 30.667 15 54 45 70c8.66699 4.66699 17.667 7 27 7c10.667 -2.66699 24.667 -6.66699 42 -12l-11 -23c-3.33301 0.666992 -8 2 -14 4s-10.667 3.33301 -14 4
c-12 0 -23 -4.66699 -33 -14c-10 -14.667 -15 -26.667 -15 -36c0 -26 13.333 -39.333 40 -40c10 0 21 2.66699 33 8c8.66699 1.33301 23 7.33301 43 18z" />
    <glyph glyph-name="sterling" unicode="&#xfe5a;&#xfe03;" horiz-adv-x="517" 
d="M531 0c-50 0 -90.333 19.001 -121 57.001c-29.333 -38 -68.666 -57 -117.999 -57h-82c-114 0 -171 45 -171 135v429h86v-391c0 -20 1.16699 -35.667 3.5 -47s6.5 -20.333 12.5 -27s29 -10 69 -10h76c23.333 0 40.666 6.66699 51.999 20c2.66699 6.66699 4 15.667 4 27
c0 2.66699 0.666992 8.16699 2 16.5s2 15.166 2 20.499v391h88v-399c0 -32 9 -53.333 27 -64c14 -8 37.333 -12 70 -12v-89zM228 678.001l-149 -75l-12 24l50 27c-30 16 -45 37.333 -45 64c0 30.667 15 54 45 70c8.66699 4.66699 17.667 7 27 7
c10.667 -2.66699 24.667 -6.66699 42 -12l-11 -23c-3.33301 0.666992 -8 2 -14 4s-10.667 3.33301 -14 4c-12 0 -23 -4.66699 -33 -14c-10 -14.667 -15 -26.667 -15 -36c0 -26 13.333 -39.333 40 -40c10 0 21 2.66699 33 8c8.66699 1.33301 23 7.33301 43 18z" />
    <glyph glyph-name="currency" unicode="&#xfe5b;&#xfe05;" horiz-adv-x="517" 
d="M458 135c0 -35.333 -8.66602 -63.333 -25.999 -84c-10 -14.667 -25.333 -28 -46 -40c-22.667 -7.33301 -45 -11 -67 -11h-83c-116 0 -174 45 -174 135v429h88v-391c0 -39.333 5.33301 -64 16 -74c7.33301 -6.66699 30.666 -10 69.999 -10h76c24 0 41.333 6.66699 52 20
c4.66699 18.667 7 40 7 64v391h87v-429zM231.001 -146l-149 -74.999l-12 24l50 27c-30 16.667 -45 38 -45 64c0 30.667 15 54 45 70c8.66699 4.66699 17.667 7 27 7c10.667 -2 24.334 -5.66699 41.001 -11l-10 -23c-3.33301 0.666992 -8 2 -14 4s-10.667 3.33301 -14 4
c-12 0 -23.333 -5 -34 -15c-9.33301 -14.667 -14 -26.667 -14 -36c0 -25.333 13.333 -38.333 40 -39c10 -0.666992 20.667 1.66602 32 6.99902c9.33301 2 23.666 8 42.999 18z" />
    <glyph glyph-name="yen" unicode="&#xfe5a;&#xfe05;" horiz-adv-x="517" 
d="M531 0c-50 0 -90.333 19.001 -121 57.001c-29.333 -38 -68.666 -57 -117.999 -57h-82c-114 0 -171 45 -171 135v429h86v-391c0 -20 1.16699 -35.667 3.5 -47s6.5 -20.333 12.5 -27s29 -10 69 -10h76c23.333 0 40.666 6.66699 51.999 20c2.66699 6.66699 4 15.667 4 27
c0 2.66699 0.666992 8.16699 2 16.5s2 15.166 2 20.499v391h88v-399c0 -32 9 -53.333 27 -64c14 -8 37.333 -12 70 -12v-89zM231 -145.999l-149 -74.999l-12 24l50 27c-30 16.667 -45 38 -45 64c0 30.667 15 54 45 70c8.66699 4.66699 17.667 7 27 7
c10.667 -2 24.334 -5.66699 41.001 -11l-10 -23c-3.33301 0.666992 -8 2 -14 4s-10.667 3.33301 -14 4c-12 0 -23.333 -5 -34 -15c-9.33301 -14.667 -14 -26.667 -14 -36c0 -25.333 13.333 -38.333 40 -39c10 -0.666992 20.667 1.66602 32 6.99902
c9.33301 2 23.666 8 42.999 18z" />
    <glyph glyph-name="Egrave" unicode="&#xfe5b;&#xfe5a;&#xfe64;" horiz-adv-x="920" arabic-form="isolated" 
d="M515 4c16 1.33301 35.3311 11.334 57.998 30.001c18 -15.333 35.333 -24.666 52 -27.999c6 -2.66699 16 -4.33398 30 -5.00098c17.333 -0.666992 32.666 -1 45.999 -1h52c23.333 0 46 3.66699 68 11c20.667 10.667 36.667 24 48 40c16.667 24 25 52 25 84v429h-86v-391
c0 -32 -3 -53.333 -9 -64c-10 -13.333 -27 -20 -51 -20h-21c-12 0 -27.667 0.666992 -47 2c-12 0.666992 -24 2 -36 4c-18.667 9.33301 -28 29.666 -28 60.999v296h-89v-279c0 -18.667 -1.66699 -35.334 -5 -50.001l-8 -20c-14.667 -0.666992 -33 1 -55 5
c-7.33301 4 -23.666 19.333 -48.999 46l-264 281l-61 -60l27 -28c-35.333 -36 -58.666 -62.333 -69.999 -79c-22.667 -34 -33.667 -67.333 -33 -100c0 -48 16.333 -87.667 49 -119c18.667 -18.667 37.167 -31.5 55.5 -38.5s39.5 -10.5 63.5 -10.5
c74.667 0.666992 128.334 35.667 161.001 105l65 -57c14.667 -13.333 24 -20.666 28 -21.999c6.66699 -5.33301 17 -9.33301 31 -12c3.33301 -0.666992 8.5 -3.16699 15.5 -7.5s14.5 -6.5 22.5 -6.5c0 0.666992 5 2 15 4zM704.998 598.001
c0 -18.667 -5.33496 -35.6689 -16.002 -51.002c-11.333 -12.667 -25.666 -19 -42.999 -19c-32.667 0 -57.667 13 -75 39c-20 -43.333 -50 -65 -90 -65c-18 0 -32 7.33301 -42 22c-10 11.333 -15 25.333 -15 42c-0.666992 24 6.66602 53 21.999 87l32 -17
c-6 -15.333 -11 -31.666 -15 -48.999c0 -22.667 9.33301 -34 28 -34c36.667 0 54.334 30.667 53.001 92l43 24c0.666992 -61.333 16.667 -92 48 -92c19.333 0 29 10.667 29 32c0 12 -8.33301 30.333 -25 55l34 25c20.667 -29.333 31.334 -59.666 32.001 -90.999z
M592.996 866.999l-16 -169h-28l-19 169h63zM260.996 162.999c0 13.333 -5.33203 29.334 -15.999 48.001l-71 71c-51.333 -48.667 -77 -88.334 -77 -119.001c0 -15.333 6.66699 -32.166 20 -50.499s33.666 -27.5 60.999 -27.5c21.333 0 40.5 7.66699 57.5 23
s25.5 33.666 25.5 54.999z" />
    <glyph glyph-name="agrave" unicode="&#x651;&#x64e;" arabic-form="isolated" 
d="M218 947l-265 -65l-12 40l264 68zM216 784c0.666992 -18.667 -4.33398 -35.6689 -15.001 -51.002c-11.333 -12.667 -25.666 -19 -42.999 -19c-32.667 0 -57.667 13 -75 39c-20 -43.333 -50 -65 -90 -65c-18 0 -32 7.33301 -42 22c-10 11.333 -15 25.333 -15 42
c-0.666992 24 6.66602 53 21.999 87l32 -17c-6 -15.333 -11 -31.666 -15 -48.999c0 -22.667 9.33301 -34 28 -34c36.667 0 54.334 30.667 53.001 92l43 24c0.666992 -61.333 16.667 -92 48 -92c19.333 0 29 10.667 29 32c0 12 -8.33301 30.333 -25 55l34 25
c20.667 -29.333 31 -59.666 31 -90.999z" />
    <glyph glyph-name="acircumflex" unicode="&#x651;&#x650;" arabic-form="isolated" 
d="M216 894c1.33301 -46 -17.999 -69.334 -57.999 -70.001c-32.667 -0.666992 -57.667 12.333 -75 39c-19.333 -43.333 -49.333 -65 -90 -65c-16.667 -0.666992 -30.334 5.66602 -41.001 18.999s-16 28.666 -16 45.999c-0.666992 22.667 6.66602 51 21.999 85l32 -16
c-4.66699 -13.333 -9.66699 -29.666 -15 -48.999c0 -22.667 9.33301 -34 28 -34c36.667 0 54.334 30.667 53.001 92l43 23c0.666992 -60.667 16.667 -91 48 -91c19.333 0 29 10.667 29 32c0 10.667 -3.33301 20.334 -10 29.001
c-0.666992 2.66699 -5.66699 11.334 -15 26.001l34 25c20.667 -30.667 31 -61 31 -91zM222.001 750.999l-264 -65l-13 39l265 68z" />
    <glyph glyph-name="adieresis" unicode="&#x651;&#x64f;" arabic-form="isolated" 
d="M220 1010c0.666992 -45.333 -27.333 -74.6689 -84 -88.002l-181 -43l-10 37c50 10.667 91.667 22.334 125 35.001c-14.667 17.333 -22 35.333 -22 54c0 20 8.5 38.5 25.5 55.5s35.5 25.5 55.5 25.5c22.667 0.666992 44 -7.33301 64 -24c18 -15.333 27 -32.666 27 -51.999
zM216 783.997c0.666992 -18.667 -4.33398 -35.6689 -15.001 -51.002c-11.333 -12.667 -25.666 -19 -42.999 -19c-32.667 0 -57.667 13 -75 39c-20 -43.333 -50 -65 -90 -65c-18 0 -32 7.33301 -42 22c-10 11.333 -15 25.333 -15 42c-0.666992 24 6.66602 53 21.999 87
l32 -17c-6 -15.333 -11 -31.666 -15 -48.999c0 -22.667 9.33301 -34 28 -34c36.667 0 54.334 30.667 53.001 92l43 24c0.666992 -61.333 16.667 -92 48 -92c19.333 0 29 10.667 29 32c0 12 -8.33301 30.333 -25 55l34 25c20.667 -29.333 31 -59.666 31 -90.999z
M172.999 1004c0.666992 12 -4.66699 22.001 -16 30.001c-6 4 -13.667 6 -23 6c-11.333 0 -20.833 -3.5 -28.5 -10.5s-11.5 -15.5 -11.5 -25.5s4.16699 -18.833 12.5 -26.5s17.5 -11.5 27.5 -11.5c8.66699 0 18 3.33301 28 10c7.33301 9.33301 11 18.666 11 27.999z" />
    <glyph glyph-name="ae" unicode="&#x651;&#x64b;" arabic-form="isolated" 
d="M222 1030l-264 -66l-13 40l265 68zM222 944l-264 -66l-13 38l265 69zM216 784c0.666992 -18.667 -4.33398 -35.6689 -15.001 -51.002c-11.333 -12.667 -25.666 -19 -42.999 -19c-32.667 0 -57.667 13 -75 39c-20 -43.333 -50 -65 -90 -65c-18 0 -32 7.33301 -42 22
c-10 11.333 -15 25.333 -15 42c-0.666992 24 6.66602 53 21.999 87l32 -17c-6 -15.333 -11 -31.666 -15 -48.999c0 -22.667 9.33301 -34 28 -34c36.667 0 54.334 30.667 53.001 92l43 24c0.666992 -61.333 16.667 -92 48 -92c19.333 0 29 10.667 29 32
c0 12 -8.33301 30.333 -25 55l34 25c20.667 -29.333 31 -59.666 31 -90.999z" />
    <glyph glyph-name="egrave" unicode="&#x651;&#x64d;" arabic-form="isolated" 
d="M216 981c0.666992 -26 -7.33203 -45.6699 -23.999 -59.0029c-8.66699 -7.33301 -20 -11.666 -34 -12.999c-32 0 -57 13.667 -75 41c-20 -43.333 -50 -65 -90 -65c-16.667 0 -30.334 6.33301 -41.001 19s-16 27.334 -16 44.001c-0.666992 23.333 6.66602 52.333 21.999 87
l32 -16c-4.66699 -13.333 -9.66699 -29.666 -15 -48.999c0 -23.333 9.33301 -35 28 -35c36.667 0 54.334 31 53.001 93l43 23c0.666992 -60.667 16.667 -91 48 -91c19.333 -0.666992 29 9.66602 29 30.999c0 11.333 -3.33301 21.333 -10 30
c-0.666992 2.66699 -5.66699 11.334 -15 26.001l34 24c20.667 -30 31 -60 31 -90zM222.001 837.997l-264 -66l-13 40l265 68zM222.001 750.997l-264 -65l-13 39l265 68z" />
    <glyph glyph-name="ecircumflex" unicode="&#x651;&#x64c;" arabic-form="final" 
d="M220 1010c0.666992 -45.333 -27.333 -74.667 -84 -88l-181 -43l-10 37c28 8 42 24 42 48c0 12.667 -4.66699 19.667 -14 21c-8 0 -17.333 -4 -28 -12l-19 28c16 22 34 32.667 54 32c27.333 0 41 -14.667 41 -44c0 -22.667 -6.33301 -42.334 -19 -59.001
c2 0.666992 24.667 7.66699 68 21c-14.667 17.333 -22 35.333 -22 54c0 20 8.5 38.5 25.5 55.5s35.5 25.5 55.5 25.5c22.667 0.666992 44 -7.33301 64 -24c18 -15.333 27 -32.666 27 -51.999zM216 783.999c0.666992 -18.667 -4.33398 -35.6689 -15.001 -51.002
c-11.333 -12.667 -25.666 -19 -42.999 -19c-32.667 0 -57.667 13 -75 39c-20 -43.333 -50 -65 -90 -65c-18 0 -32 7.33301 -42 22c-10 11.333 -15 25.333 -15 42c-0.666992 24 6.66602 53 21.999 87l32 -17c-6 -15.333 -11 -31.666 -15 -48.999
c0 -22.667 9.33301 -34 28 -34c36.667 0 54.334 30.667 53.001 92l43 24c0.666992 -61.333 16.667 -92 48 -92c19.333 0 29 10.667 29 32c0 12 -8.33301 30.333 -25 55l34 25c20.667 -29.333 31 -59.666 31 -90.999zM172.999 1004c0.666992 12 -4.66699 22.001 -16 30.001
c-6 4 -13.667 6 -23 6c-11.333 0 -20.833 -3.5 -28.5 -10.5s-11.5 -15.5 -11.5 -25.5s4.16699 -18.833 12.5 -26.5s17.5 -11.5 27.5 -11.5c8.66699 0 18 3.33301 28 10c7.33301 9.33301 11 18.666 11 27.999z" />
    <glyph glyph-name="Oacute" unicode="&#xfe71;" arabic-form="medial" 
d="M283 575l-264 -65l-12 39l265 68z" />
    <glyph glyph-name="Otilde" unicode="&#xfe72;" arabic-form="isolated" 
d="M283 -116l-264 -66l-12 39l265 69z" />
    <glyph glyph-name="Ugrave" unicode="&#xfe74;" arabic-form="isolated" 
d="M283 662l-264 -66l-12 40l265 68zM283 575l-264 -65l-12 39l265 68z" />
    <glyph glyph-name="Yacute" unicode="&#xfe76;" arabic-form="isolated" 
d="M282 642c0.666992 -45.333 -27.6699 -74.667 -85.0029 -88l-180 -43l-11 38c28 7.33301 42 23 42 47c0 13.333 -4.66699 20 -14 20c-7.33301 0 -16.666 -3.33301 -27.999 -10l-18 27c15.333 22 33 33 53 33c28 0 42 -14.667 42 -44
c0 -22.667 -6.66699 -42.334 -20 -59.001c14 3.33301 36.667 10.333 68 21c-14 18 -21 36 -21 54c0 20 8.5 38.333 25.5 55s35.5 25 55.5 25c22.667 0.666992 43.334 -7.16602 62.001 -23.499s28.334 -33.833 29.001 -52.5zM234.996 635.999
c0.666992 12 -4.66895 22 -16.002 30c-6.66699 4.66699 -14.667 7 -24 7c-26 0 -39 -12.333 -39 -37c0 -11.333 3.66699 -20 11 -26c8.66699 -8 18 -12 28 -12c10.667 0 19.834 3.66699 27.501 11s11.834 16.333 12.501 27z" />
    <glyph glyph-name="germandbls" unicode="&#xfe77;" arabic-form="medial" 
d="M278 608c0.666992 -18.667 -4.66797 -35.6689 -16.001 -51.002c-10.667 -12.667 -25 -19 -43 -19c-32 0 -57 13 -75 39c-19.333 -43.333 -49 -65 -89 -65c-18.667 0 -33 7.33301 -43 22c-9.33301 11.333 -14.333 25.333 -15 42c0 24 7.33301 53 22 87l33 -17
c-6 -15.333 -11 -31.666 -15 -48.999c0 -22.667 9 -34 27 -34c36.667 0 54.667 30.667 54 92l42 24c0.666992 -61.333 17 -92 49 -92c19.333 0 29 10.667 29 32c0 12 -8.33301 30.333 -25 55l33 25c20.667 -29.333 31.334 -59.666 32.001 -90.999z" />
    <glyph glyph-name="aacute" unicode="&#xfe79;" arabic-form="medial" 
d="M280 771l-265 -65l-12 40l264 68zM278 608c0.666992 -18.667 -4.66797 -35.6689 -16.001 -51.002c-10.667 -12.667 -25 -19 -43 -19c-32 0 -57 13 -75 39c-19.333 -43.333 -49 -65 -89 -65c-18.667 0 -33 7.33301 -43 22c-9.33301 11.333 -14.333 25.333 -15 42
c0 24 7.33301 53 22 87l33 -17c-6 -15.333 -11 -31.666 -15 -48.999c0 -22.667 9 -34 27 -34c36.667 0 54.667 30.667 54 92l42 24c0.666992 -61.333 17 -92 49 -92c19.333 0 29 10.667 29 32c0 12 -8.33301 30.333 -25 55l33 25
c20.667 -29.333 31.334 -59.666 32.001 -90.999z" />
    <glyph glyph-name="atilde" unicode="&#xfe7b;" arabic-form="medial" 
d="M278 718c0.666992 -46 -19.002 -69.334 -59.002 -70.001c-32 -0.666992 -57 12.333 -75 39c-19.333 -43.333 -49 -65 -89 -65c-17.333 -0.666992 -31.166 5.66602 -41.499 18.999s-15.833 28.666 -16.5 45.999c0 22.667 7.33301 51 22 85l33 -16
c-5.33301 -13.333 -10.333 -29.666 -15 -48.999c0 -22.667 9 -34 27 -34c36.667 0 54.667 30.667 54 92l42 23c0.666992 -60.667 17 -91 49 -91c19.333 0 29 10.667 29 32c0 10.667 -3.33301 20.334 -10 29.001c-1.33301 2.66699 -6.33301 11.334 -15 26.001l33 25
c20.667 -30.667 31.334 -61 32.001 -91zM282.998 574.999l-264 -65l-12 39l265 68z" />
    <glyph glyph-name="aring" unicode="&#xfe7d;" arabic-form="medial" 
d="M282 834c0.666992 -45.333 -27.6689 -74.668 -85.002 -88.001l-180 -43l-11 37c50 10.667 91.667 22.334 125 35.001c-14 17.333 -21 35.333 -21 54c0 20 8.5 38.5 25.5 55.5s35.5 25.5 55.5 25.5c22.667 0.666992 43.334 -7 62.001 -23s28.334 -33.667 29.001 -53z
M277.997 607.998c0.666992 -18.667 -4.66797 -35.6689 -16.001 -51.002c-10.667 -12.667 -25 -19 -43 -19c-32 0 -57 13 -75 39c-19.333 -43.333 -49 -65 -89 -65c-18.667 0 -33 7.33301 -43 22c-9.33301 11.333 -14.333 25.333 -15 42c0 24 7.33301 53 22 87l33 -17
c-6 -15.333 -11 -31.666 -15 -48.999c0 -22.667 9 -34 27 -34c36.667 0 54.667 30.667 54 92l42 24c0.666992 -61.333 17 -92 49 -92c19.333 0 29 10.667 29 32c0 12 -8.33301 30.333 -25 55l33 25c20.667 -29.333 31.334 -59.666 32.001 -90.999zM234.995 827.996
c0.666992 12 -4.66895 22.001 -16.002 30.001c-6.66699 4 -14.667 6 -24 6c-11.333 0 -20.666 -3.5 -27.999 -10.5s-11 -15.5 -11 -25.5s4.16699 -18.833 12.5 -26.5s17.166 -11.5 26.499 -11.5c8.66699 0 18.334 3.33301 29.001 10
c6.66699 9.33301 10.334 18.666 11.001 27.999z" />
    <glyph glyph-name="ccedilla" unicode="&#xfe7f;" arabic-form="medial" 
d="M283 854l-264 -66l-12 40l265 68zM283 768l-264 -66l-12 38l265 69zM278 608c0.666992 -18.667 -4.66797 -35.6689 -16.001 -51.002c-10.667 -12.667 -25 -19 -43 -19c-32 0 -57 13 -75 39c-19.333 -43.333 -49 -65 -89 -65c-18.667 0 -33 7.33301 -43 22
c-9.33301 11.333 -14.333 25.333 -15 42c0 24 7.33301 53 22 87l33 -17c-6 -15.333 -11 -31.666 -15 -48.999c0 -22.667 9 -34 27 -34c36.667 0 54.667 30.667 54 92l42 24c0.666992 -61.333 17 -92 49 -92c19.333 0 29 10.667 29 32c0 12 -8.33301 30.333 -25 55l33 25
c20.667 -29.333 31.334 -59.666 32.001 -90.999z" />
    <glyph glyph-name="eacute" unicode="&#x622;" arabic-form="isolated" 
d="M278 805c0.666992 -26 -7.33203 -45.6699 -23.999 -59.0029c-9.33301 -7.33301 -21 -11.666 -35 -12.999c-32 0 -57 13.667 -75 41c-19.333 -43.333 -49 -65 -89 -65c-16.667 0 -30.334 6.33301 -41.001 19s-16.334 27.334 -17.001 44.001c0 23.333 7.33301 52.333 22 87
l33 -16c-5.33301 -13.333 -10.333 -29.666 -15 -48.999c0 -23.333 9 -35 27 -35c36.667 0 54.667 31 54 93l42 23c0.666992 -60.667 17 -91 49 -91c19.333 -0.666992 29 9.66602 29 30.999c0 11.333 -3.33301 21.333 -10 30c-1.33301 2.66699 -6.33301 11.334 -15 26.001
l33 24c20.667 -30 31.334 -60 32.001 -90zM283.001 661.997l-264 -66l-12 40l265 68zM283.001 574.997l-264 -65l-12 39l265 68z" />
    <glyph glyph-name="edieresis" unicode="&#x623;" arabic-form="isolated" 
d="M282 834c0.666992 -45.333 -27.6699 -74.666 -85.0029 -87.999l-180 -43l-11 37c28 8 42 24 42 48c0 12.667 -4.66699 19.667 -14 21c-8 0 -17.333 -4 -28 -12l-18 28c16 22 33.667 32.667 53 32c28 0 42 -14.667 42 -44c0 -22.667 -6.66699 -42.334 -20 -59.001
c2.66699 0.666992 25.334 7.66699 68.001 21c-14 17.333 -21 35.333 -21 54c0 20 8.5 38.5 25.5 55.5s35.5 25.5 55.5 25.5c22.667 0.666992 43.334 -7 62.001 -23s28.334 -33.667 29.001 -53zM277.996 608c0.666992 -18.667 -4.66797 -35.6689 -16.001 -51.002
c-10.667 -12.667 -25 -19 -43 -19c-32 0 -57 13 -75 39c-19.333 -43.333 -49 -65 -89 -65c-18.667 0 -33 7.33301 -43 22c-9.33301 11.333 -14.333 25.333 -15 42c0 24 7.33301 53 22 87l33 -17c-6 -15.333 -11 -31.666 -15 -48.999c0 -22.667 9 -34 27 -34
c36.667 0 54.667 30.667 54 92l42 24c0.666992 -61.333 17 -92 49 -92c19.333 0 29 10.667 29 32c0 12 -8.33301 30.333 -25 55l33 25c20.667 -29.333 31.334 -59.666 32.001 -90.999zM234.994 827.998c0.666992 12 -4.66895 22.001 -16.002 30.001
c-6.66699 4 -14.667 6 -24 6c-11.333 0 -20.666 -3.5 -27.999 -10.5s-11 -15.5 -11 -25.5s4.16699 -18.833 12.5 -26.5s17.166 -11.5 26.499 -11.5c8.66699 0 18.334 3.33301 29.001 10c6.66699 9.33301 10.334 18.666 11.001 27.999z" />
    <glyph glyph-name="iacute" unicode="&#x623;" arabic-form="final" 
d="M370 505l-162 -0.000976562l-38 -3c-10 -2 -17.333 -4.66699 -22 -8c-8.66699 -8 -16 -19.667 -22 -35l-59 23c16.667 34.667 30.667 56.334 42 65.001c8 6.66699 18 11.667 30 15c14.667 4 30.667 6 48 6l183 1v-64z" />
    <glyph glyph-name="idieresis" unicode="&#x624;" arabic-form="isolated" 
d="M236 608c0 -26.667 -9.5 -49.501 -28.5 -68.501s-41.5 -28.5 -67.5 -28.5c-26.667 0 -49.5 9.5 -68.5 28.5s-28.5 41.833 -28.5 68.5c0 24.667 9.83301 46.667 29.5 66s42.167 29 67.5 29c26 0 49 -10.333 69 -31c18 -19.333 27 -40.666 27 -63.999zM188 608.999
c0 13.333 -4.16602 24.501 -12.499 33.501s-20.833 13.5 -37.5 13.5c-12.667 0 -23.834 -5 -33.501 -15s-14.5 -21 -14.5 -33c0 -14.667 4.83301 -26.834 14.5 -36.501s21.5 -14.5 35.5 -14.5c12.667 0 23.667 4.66699 33 14c10 7.33301 15 20 15 38z" />
    <glyph glyph-name="ntilde" unicode="&#x624;" arabic-form="final" 
d="M304 630l-157 -79.999l-14 26l54 29c-32 16 -48 38.667 -48 68c0 19.333 7.33301 37.666 22 54.999c17.333 16.667 35.333 25 54 25c14 -3.33301 28.667 -7.33301 44 -12l-12 -24c-3.33301 0.666992 -8.66602 2 -15.999 4c-2.66699 0.666992 -7.33398 2 -14.001 4
c-12.667 0 -24 -5.33301 -34 -16c-10 -14 -15 -26 -15 -36c0 -28 13.667 -42.333 41 -43c17.333 0 44.333 9 81 27z" />
    <glyph glyph-name="oacute" unicode="&#x625;" arabic-form="isolated" 
d="M171 679l-16 -169h-28l-19 169h63z" />
    <glyph glyph-name=".notdef" horiz-adv-x="550" 
d="M69 0v700h412v-700h-412zM138 69h275v562h-275v-562z" />
    <glyph glyph-name="space" unicode=" " horiz-adv-x="215" 
 />
    <glyph glyph-name="ccircumflex" unicode="!" horiz-adv-x="242" 
d="M165 391l-21 -211h-49l-22 211v203h92v-203zM189 62c0 -41.333 -23 -62 -69 -62c-44.667 0 -67 20.667 -67 62c0 37.333 22.333 56 67 56c46 0 69 -18.667 69 -56z" />
    <glyph glyph-name="eogonek" unicode="(" horiz-adv-x="343" 
d="M265 -6c1.33301 -14 -6 -20.999 -22 -20.999c-11.333 0 -29.333 11.667 -54 35c-74 71.333 -111 159 -111 263c0 88.667 37 173 111 253c26 28 44 42 54 42c8 0.666992 13.833 -1 17.5 -5s5.16699 -9.66699 4.5 -17c-8.66699 -16 -20.667 -41 -36 -75
c-22 -52.667 -33.333 -119.334 -34 -200.001c0 -80 11.333 -146.667 34 -200z" />
    <glyph glyph-name="Ecaron" unicode=")" horiz-adv-x="342" 
d="M77 -6c-1.33301 -14 6.33398 -21 23.001 -21c10.667 0 28.667 11.667 54 35c74 70.667 111 158.334 111 263.001c0 43.333 -11 88.666 -33 135.999c-20 43.333 -46 82.333 -78 117c-26 28 -44 42 -54 42c-8.66699 0.666992 -14.834 -1 -18.501 -5
s-5.16699 -9.66699 -4.5 -17c8.66699 -16 21 -41 37 -75c22.667 -53.333 34 -120 34 -200s-11.333 -146.667 -34 -200z" />
    <glyph glyph-name="ebreve" unicode="*" horiz-adv-x="350" 
d="M320 634l-121 -71l-12 22l121 70zM187 585h-23v140h23v-140zM320 493l-11 -21l-122 69l12 22zM164 585l-13 -24l-121 70l12 23zM187 400h-23v141h23v-141zM164 541l-120 -70l-14 20l121 70z" />
    <glyph glyph-name="ebreve" unicode="&#x66d;" horiz-adv-x="350" 
d="M320 634l-121 -71l-12 22l121 70zM187 585h-23v140h23v-140zM320 493l-11 -21l-122 69l12 22zM164 585l-13 -24l-121 70l12 23zM187 400h-23v141h23v-141zM164 541l-120 -70l-14 20l121 70z" />
    <glyph glyph-name="Dslash" unicode="+" horiz-adv-x="508" 
d="M214 441h81v-137h137v-82h-137v-137h-81v137h-138v82h138v137z" />
    <glyph glyph-name="dcroat" unicode="-" horiz-adv-x="508" 
d="M76 304h356v-82h-356v82z" />
    <glyph glyph-name="dcroat" unicode="&#x2010;" horiz-adv-x="508" 
d="M76 304h356v-82h-356v82z" />
    <glyph glyph-name="Cdot" unicode="." horiz-adv-x="290" 
d="M214 61c0 -40.667 -23 -61 -69 -61c-45.333 -0 -68 20.333 -68 61c0 37.333 22.667 56 68 56c46 0.666992 69 -18 69 -56z" />
    <glyph glyph-name="dcaron" unicode="/" horiz-adv-x="485" 
d="M458 492l-303 -555h-129l306 555h126z" />
    <glyph glyph-name="uacute" unicode="0" horiz-adv-x="592" 
d="M453 158c0 -36.667 -16.8311 -70.333 -50.498 -101s-68.834 -46 -105.501 -46c-38.667 0 -74.667 15 -108 45s-50 64 -50 102c0 34.667 16.5 69.5 49.5 104.5s69.167 52.5 108.5 52.5c37.333 0 72.666 -16.667 105.999 -50s50 -69 50 -107zM383.002 158.001
c0 32.667 -18.667 59.333 -56 80c-8.66699 4.66699 -18.667 7 -30 7c-22.667 0 -43 -9 -61 -27s-27 -38 -27 -60c0 -20 9 -39.667 27 -59c4 -4 13.333 -10 28 -18c10 -4 21 -6 33 -6c22 0 41.833 8 59.5 24s26.5 35.667 26.5 59z" />
    <glyph glyph-name="ucircumflex" unicode="1" horiz-adv-x="592" 
d="M360 -99l-85 -0.000976562v271c0 33.333 -3.33301 79.333 -10 138c-2 16.667 -6.33301 39 -13 67l-8 32c-2 12.667 -6 25.334 -12 38.001l84 28l31 -118c2 -20.667 5.33301 -53 10 -97c2 -18 3 -47.333 3 -88v-271z" />
    <glyph glyph-name="udieresis" unicode="2" horiz-adv-x="592" 
d="M469 322c2 -43.333 -20.001 -78.666 -66.001 -105.999c-13.333 -7.33301 -24 -11.666 -32 -12.999c-5.33301 -2 -16.333 -3.33301 -33 -4c-26.667 -0.666992 -55 8.66602 -85 27.999l1 -326h-89v257c0 79.333 -7.33301 155 -22 227
c-4.66699 22 -11.334 42.667 -20.001 62l86 28l35 -145c8.66699 -36.667 30.334 -55 65.001 -55c18 0 34 6 48 18c4.66699 4.66699 9.33398 12 14.001 22c2.66699 5.33301 4.66699 14.666 6 27.999l-14 106l29 10l52 17l17 -83c4 -18.667 6.33301 -36.667 7 -54z" />
    <glyph glyph-name="yacute" unicode="3" horiz-adv-x="592" 
d="M568 332c2 -26.667 -10 -55.999 -36 -87.999c-25.333 -24 -55.333 -36.667 -90 -38c-34 -1.33301 -70.333 19 -109 61c0 -42 -30.667 -63.333 -92 -64c-29.333 0 -58.333 7.66699 -87 23l1 -325h-87v257c0 113.333 -14.333 209.666 -43 288.999l86 28l33 -145
c8.66699 -36.667 30.667 -55 66 -55c11.333 0 20.333 1.33301 27 4c4 2 11.333 6.66699 22 14c12.667 12 20 28.667 22 50l-17 106l83 31c14 -76 20.333 -128 19 -156l-1 -24c14.667 -18 33 -27 55 -27c18.667 0 33.667 6.33301 45 19c12 10.667 18.667 27.667 20 51
l-15 106l82 26l15 -117z" />
    <glyph glyph-name="thorn" unicode="4" horiz-adv-x="592" 
d="M526 228c-25.333 -12 -55.333 -23.334 -90 -34.001l-43 -7c-14 -2 -28.667 -3 -44 -3c-27.333 0 -52.666 2.66699 -75.999 8c-28.667 6.66699 -55.334 15.667 -80.001 27l1 -318h-86v264c0 41.333 -3 85.333 -9 132c-0.666992 4.66699 -2 12 -4 22
c0 2.66699 -0.666992 6.33398 -2 11.001c0 8.66699 -2.33301 22 -7 40l-20 77l83 28l23 -93l15 -79l45 -21c0 22 0.333008 38 1 48c2.66699 16 9.33398 38.667 20.001 68c4.66699 10 11.334 20.333 20.001 31c15.333 18 32.333 30.333 51 37c16.667 8.66699 38.667 13 66 13
c33.333 0 70 -9.33301 110 -28l-30 -75c-24.667 17.333 -49.334 26 -74.001 26c-29.333 0.666992 -52.666 -11.333 -69.999 -36c-2.66699 -2.66699 -6.33398 -8.5 -11.001 -17.5s-6.66699 -18.833 -6 -29.5l2 -22c9.33301 -24.667 30.666 -37 63.999 -37
c29.333 0 70.333 13 123 39z" />
    <glyph glyph-name="ydieresis" unicode="5" horiz-adv-x="592" 
d="M569 37c0 -45.333 -16.5 -82.3311 -49.5 -110.998s-72.5 -43.334 -118.5 -44.001c-44.667 -0.666992 -82.667 10.666 -114 33.999c-38.667 -22.667 -77.334 -34.667 -116.001 -36c-45.333 -0.666992 -81.666 16.333 -108.999 51c-25.333 31.333 -38 70.333 -38 117
c0 74 28.667 146.667 86 218l96 119l-34 23l56 68c227.333 -170 341 -316.333 341 -439zM476 55.002c0 23.333 -8 49.835 -24 79.502s-38.333 60.5 -67 92.5c-30.667 33.333 -68.334 68.333 -113.001 105c-104 -106.667 -156 -197.334 -156 -272.001
c0 -24.667 6.33301 -44.834 19 -60.501s30 -23.5 52 -23.5c24.667 0 43 9.66699 55 29c10 12 15.667 28.667 17 50l-5 33h87l5 -15l1 -19l-1 -33c0 -4.66699 -2.66699 -13.667 -8 -27c16.667 -10.667 35.667 -16 57 -16c40.667 0 66.334 16 77.001 48
c2.66699 7.33301 4 17 4 29z" />
    <glyph glyph-name="Amacron" unicode="6" horiz-adv-x="592" 
d="M476 237c-23.333 -20.667 -46.333 -44.665 -69 -71.998l-74 -91c-8 -9.33301 -30 -41 -66 -95c-19.333 -28 -40 -61.333 -62 -100l-77 48c13.333 26.667 33 59.667 59 99c18 26.667 51.667 72 101 136c-55.333 0 -98.666 16 -129.999 48
c-27.333 29.333 -41 65.666 -41 108.999c0 55.333 23.333 101.333 70 138c24.667 15.333 52 23 82 23c36 0 74 -10.333 114 -31l-28 -79c-26 14.667 -50 22 -72 22c-26.667 0 -49.334 -12.333 -68.001 -37c-6.66699 -13.333 -10 -25.333 -10 -36s2.66699 -22 8 -34
c11.333 -25.333 34.333 -38 69 -38c18 0 37 3.66699 57 11c16.667 3.33301 38.667 13.666 66 30.999z" />
    <glyph glyph-name="amacron" unicode="7" horiz-adv-x="592" 
d="M543 437l-70.999 -125c-26.667 -48 -48.334 -91 -65.001 -129c-24 -56.667 -49.667 -150.667 -77 -282h-70c-13.333 102.667 -38 196.667 -74 282c-10.667 25.333 -28.667 61.333 -54 108l-38 68c-8 16 -22.333 41.667 -43 77l77 40
c24.667 -40.667 46.334 -80 65.001 -118c23.333 -48.667 39.666 -85 48.999 -109l50 -185l11 -2l11 59l16 54l23 73l17 45c6.66699 16 15.667 34.333 27 55l71 128z" />
    <glyph glyph-name="Abreve" unicode="8" horiz-adv-x="592" 
d="M543 -55l-39 -19.002l-37 -20l-69 122c-13.333 26 -28.333 60.667 -45 104l-50 187h-11c-18 -85.333 -34.667 -147 -50 -185l-14 -35c-18.667 -47.333 -52.334 -111.666 -101.001 -192.999l-38 20l-40 19c40.667 68.667 68.667 117 84 145
c24.667 44.667 42.334 81 53.001 109l23 60l21 68c12 39.333 23 90.333 33 153l68 -1c12 -69.333 22.667 -120.666 32 -153.999c12.667 -42.667 27.667 -85 45 -127l21 -50l64 -121z" />
    <glyph glyph-name="abreve" unicode="9" horiz-adv-x="592" 
d="M458 -99h-88v302l-51 -13l-46 -4c-41.333 0 -74.166 11.333 -98.499 34s-36.833 54 -37.5 94c-0.666992 60.667 21.666 107 66.999 139c11.333 8.66699 24.166 15.334 38.499 20.001s28.833 7 43.5 7c14 0 29 -1.66699 45 -5c12.667 -4.66699 28.667 -12.334 48 -23.001
c24.667 -13.333 45 -48 61 -104c0.666992 -8.66699 3 -21.667 7 -39c1.33301 -8.66699 3 -20.667 5 -36c0.666992 -8.66699 2.33398 -22.667 5.00098 -42c0.666992 -11.333 1 -25.333 1 -42v-288zM362 293l-5.00098 36c-1.33301 6 -4.33301 16 -9 30
c-5.33301 16.667 -17 29 -35 37l-28 6c-27.333 0 -47.666 -12 -60.999 -36c-8.66699 -16 -13 -29.667 -13 -41v-11c0 -4 1.66699 -9 5 -15c9.33301 -24 28 -36 56 -36c24 0 54 10 90 30z" />
    <glyph glyph-name="ccaron" unicode=":" horiz-adv-x="290" 
d="M213 280c0.666992 -40.667 -21.667 -61 -67 -61c-46.667 0 -70 20.333 -70 61c0 38 23.333 57 70 57c44.667 0 67 -19 67 -57zM213.999 62c0.666992 -18.667 -5.5 -33.667 -18.5 -45s-29.167 -17 -48.5 -17c-30 0 -51.667 12 -65 36l-5 26c0 37.333 23.333 56 70 56
c44 0 66.333 -18.667 67 -56z" />
    <glyph glyph-name="edot" unicode="&#x3c;" horiz-adv-x="501" 
d="M464 -99l-427 250v83l427 250v-96l-337 -196l337 -194v-97z" />
    <glyph glyph-name="Edot" unicode="=" horiz-adv-x="632" 
d="M571 193h-510v90h510v-90zM571 0h-510v91h510v-91z" />
    <glyph glyph-name="Eogonek" unicode="&#x3e;" horiz-adv-x="501" 
d="M465 234l-1 -83l-428 -250l1 97l338 196l-339 194l1 96z" />
    <glyph glyph-name="glyph243" unicode="[" horiz-adv-x="290" 
d="M59 -185v805h171v-64h-94v-676h94v-65h-171z" />
    <glyph glyph-name="glyph244" unicode="]" horiz-adv-x="290" 
d="M230 -185h-171v65h93v676h-93v64h171v-805z" />
    <glyph glyph-name="ecaron" unicode="{" horiz-adv-x="294" 
d="M23 263c44.667 1.33301 71.6641 22.666 80.9971 63.999c4.66699 20 7.33398 54 8.00098 102c-0.666992 21.333 0 52.666 2 93.999c6.66699 62.667 33.334 100.334 80.001 113.001c10.667 3.33301 28.334 5 53.001 5h24v-68h-13c-32 0 -52.333 -6.16699 -61 -18.5
s-13 -35.5 -13 -69.5c0 -75.333 -1.66699 -122.666 -5 -141.999c-8.66699 -54 -37 -92.333 -85 -115c38 -16 63.667 -42.667 77 -80c8.66699 -25.333 13 -63.333 13 -114c0 -56 0.666992 -89 2 -99c2.66699 -22 10 -36.667 22 -44c9.33301 -6 26 -9 50 -9h13v-67h-24
c-28 0 -48.333 2.33301 -61 7c-38.667 14 -61.667 43.333 -69 88l-4 141c-2 64.667 -14.333 106 -37 124c-13.333 11.333 -31 17.333 -53 18v70z" />
    <glyph glyph-name="Gcircumflex" unicode="}" horiz-adv-x="294" 
d="M271 263l0.00390625 -70c-44.667 -1.33301 -71.667 -23 -81 -65c-5.33301 -22 -8 -54.333 -8 -97c0 -51.333 -0.666992 -84 -2 -98c-6.66699 -62 -33.334 -99.667 -80.001 -113c-11.333 -3.33301 -29 -5 -53 -5h-24v67h13c32 0 52.667 7 62 21
c8 10.667 12 33.334 12 68.001c0 72 1.33301 117.333 4 136c8 60 36.667 100.333 86 121c-38.667 18 -64.334 44.667 -77.001 80c-8.66699 24 -13 62.5 -13 115.5s-0.666992 85.833 -2 98.5c-2.66699 21.333 -10 35.666 -22 42.999c-9.33301 5.33301 -26 8 -50 8h-13v68h24
c27.333 0 47.666 -2.33301 60.999 -7c38.667 -14 61.667 -43.333 69 -88c3.33301 -21.333 4.66602 -58 3.99902 -110c0 -47.333 3 -83.333 9 -108c9.33301 -42 36.333 -63.667 81 -65z" />
    <glyph glyph-name="gcircumflex" unicode="&#xab;" horiz-adv-x="393" 
d="M341 -14c2.66699 -4 2.66895 -7.33301 0.00195312 -10c-2.66699 -4 -6 -4.33301 -10 -1c-28.667 11.333 -56.334 37 -83.001 77s-40 82.667 -40 128c0 46 13.333 89.333 40 130c22.667 36 49.667 60.667 81 74c3.33301 1.33301 6.66602 0.333008 9.99902 -3
c2.66699 -2.66699 2.66699 -6 0 -10c-12.667 -20 -28 -46 -46 -78c-14.667 -35.333 -22 -72 -22 -110c0 -40.667 8.33301 -79.667 25 -117c5.33301 -16 20.333 -42.667 45 -80zM185.002 -14c2.66699 -4 2.66797 -7.33008 0.000976562 -9.99707
c-1.33301 -3.33301 -3.33301 -5 -6 -5c-1.33301 0.666992 -2.33301 1 -3 1c-30.667 13.333 -59 40.166 -85 80.499s-39 82.833 -39 127.5c0 45.333 13.333 88.333 40 129c25.333 37.333 52.666 61.666 81.999 72.999c3.33301 2 6 1.66699 8 -1s2 -6 0 -10
c-44 -68.667 -66 -131.667 -66 -189c0 -41.333 8 -80 24 -116c8 -18.667 23 -45.334 45 -80.001z" />
    <glyph glyph-name="Gbreve" unicode="&#xbb;" horiz-adv-x="402" 
d="M345 180c0 -43.333 -13.667 -86.333 -41 -129c-26 -40 -53.667 -66.333 -83 -79c-3.33301 -1.33301 -6.33301 0 -9 4c-2 2.66699 -2 6 0 10l47 80c16 37.333 24 76 24 116c0 55.333 -22.333 118.333 -67 189c-1.33301 0.666992 -2 2 -2 4c0 8 3.33301 10.333 10 7
c28 -10 55 -34.333 81 -73c26.667 -40.667 40 -83.667 40 -129zM189 180c0.666992 -42 -12.668 -84.999 -40.001 -128.999c-24 -38 -51.667 -63.333 -83 -76c-3.33301 -2.66699 -6.66602 -2.33398 -9.99902 0.999023c-2.66699 2.66699 -2.66699 6 0 10
c24 38 39.333 64.667 46 80c15.333 35.333 23 74.333 23 117c0 58.667 -22 121.334 -66 188.001c-2.66699 4 -2.66699 7.33301 0 10c2.66699 3.33301 5.66699 4.33301 9 3c32 -14.667 59.333 -39.334 82 -74.001c25.333 -40.667 38.333 -84 39 -130z" />
    <glyph glyph-name="Emacron" unicode="&#xd7;" horiz-adv-x="508" 
d="M137 436l119 -117l114 114l58 -57l-115 -115l117 -117l-58 -57l-116 117l-120 -120l-57 57l120 120l-118 117z" />
    <glyph glyph-name="ocircumflex" unicode="&#xf4;" 
d="M56 663l42.998 39l15 16c-18.667 4 -36 6 -52 6c-19.333 0 -33 -4.66699 -41 -14l-10 -35c-2.66699 5.33301 -4 11 -4 17c0 26.667 15.333 44.667 46 54c8.66699 2.66699 18.334 4 29.001 4c14 0.666992 29.333 -2.66602 46 -9.99902c32 29.333 62.333 44 91 44
c22 0 40.667 -8.66699 56 -26c12 -14 18 -29 18 -45c0 -4.66699 -1.16699 -8.33398 -3.5 -11.001s-14.166 -5.66699 -35.499 -9c-4.66699 -0.666992 -10.667 -1 -18 -1l-35 1c-12 0 -24.333 1.66699 -37 5l-36 9zM149.998 727
c3.33301 -0.666992 12.332 -3.00098 26.999 -7.00098l23 -3l20 -1h6l12 1c6 0.666992 10.333 1.83398 13 3.50098s4.66699 5.16699 6 10.5c0 6 -3.16699 12.167 -9.5 18.5s-15.166 9.5 -26.499 9.5c-12.667 0 -28.667 -5.33301 -48 -16z" />
    <glyph glyph-name="otilde" unicode="&#xf5;" 
d="M118 487l41.998 39l15 16c-18 4 -35 6 -51 6c-20 0 -33.667 -4.66699 -41 -14l-11 -35c-2 5.33301 -3 11 -3 17c0 26.667 15 44.667 45 54c8.66699 2.66699 18.334 4 29.001 4c14.667 0.666992 30.334 -2.66602 47.001 -9.99902c32 29.333 62.333 44 91 44
c21.333 0 39.666 -8.66699 54.999 -26c12.667 -14 19 -29 19 -45c0 -4.66699 -1.33301 -8.33398 -4 -11.001s-14.334 -5.66699 -35.001 -9c-5.33301 -0.666992 -11.666 -1 -18.999 -1l-35 1c-11.333 0 -23.666 1.66699 -36.999 5l-35 9zM210.998 551
c3.33301 -0.666992 12.332 -3.00098 26.999 -7.00098l23 -3l21 -1h6l11 1c6.66699 0.666992 11.334 1.83398 14.001 3.50098s4.66699 5.16699 6 10.5c0 6 -3.16699 12.167 -9.5 18.5s-15.5 9.5 -27.5 9.5s-27.667 -5.33301 -47 -16c-4.66699 -2.66699 -12.667 -8 -24 -16z
" />
    <glyph glyph-name="emacron" unicode="&#xf7;" horiz-adv-x="508" 
d="M206 162h97v-98h-97v98zM76 304h356v-82h-356v82zM206 462h97v-98h-97v98z" />
    <glyph glyph-name="cdot" unicode="&#x60c;" horiz-adv-x="267" 
d="M201 57c0.666992 -38 -21.668 -56.999 -67.001 -56.999s-68 19 -68 57c0 68 2 110.333 6 127c12 49.333 44.333 75.666 97 78.999v-32c-23.333 -4 -40.666 -14.333 -51.999 -31c-8 -16.667 -12 -43 -12 -79c63.333 0 95.333 -21.333 96 -64z" />
    <glyph glyph-name="Dcaron" unicode="&#x61b;" horiz-adv-x="290" 
d="M214 267c0 -38 -22.332 -57.3311 -66.999 -57.998c-48 0 -72 19.333 -72 58c0 64 2.33301 105.333 7 124c11.333 44 43.666 70.667 96.999 80v-32c-20.667 -4.66699 -37.667 -15.334 -51 -32.001c-6.66699 -12.667 -11 -38.334 -13 -77.001c66 0 99 -21 99 -63z
M215.001 57.002c0.666992 -38 -22.001 -57 -68.001 -57s-69 19 -69 57c0 40.667 23 61 69 61c44.667 0 67.334 -20.333 68.001 -61z" />
    <glyph glyph-name="Ccircumflex" unicode="&#x61f;" horiz-adv-x="417" 
d="M380 400l-90.998 0.000976562c0 75.333 -27 113.666 -81 114.999c-25.333 0.666992 -45 -7.66602 -59 -24.999c-10.667 -12.667 -16.334 -27 -17.001 -43c-0.666992 -16.667 3 -30.667 11 -42l46 -50c11.333 -12.667 22.333 -26 33 -40
c5.33301 -6.66699 11.666 -17.334 18.999 -32.001l12 -45l5 -64h-88c0 22.667 -1.66699 39 -5 49c-0.666992 13.333 -4.33398 25.666 -11.001 36.999c-1.33301 4.66699 -5.66602 11 -12.999 19c-4 5.33301 -14.333 16.333 -31 33c-26 24.667 -43.333 43.667 -52 57
c-13.333 22 -20.333 46.667 -21 74c-0.666992 48 15.5 85.667 48.5 113s72.5 41 118.5 41c45.333 0 84 -12.333 116 -37c28 -21.333 44.333 -44.666 49 -69.999l7 -38zM272.002 56.001c0 -14 -6.16797 -26.833 -18.501 -38.5s-26.833 -17.5 -43.5 -17.5
c-40.667 0 -61 18.667 -61 56c0 34 20.333 51.333 61 52c40.667 1.33301 61.334 -16 62.001 -52z" />
    <glyph glyph-name="slash" unicode="&#x621;" horiz-adv-x="259" 
d="M231 94l-184.999 -94.001l-15 29l63 35c-36 19.333 -54.333 47 -55 83c-0.666992 25.333 7.66602 46.833 24.999 64.5s38.666 26.5 63.999 26.5c4.66699 0.666992 13.334 0.333984 26.001 -0.999023c4 -0.666992 12 -4 24 -10l-13 -28c-10.667 6.66699 -23 10 -37 10
c-38.667 0 -58 -20.667 -58 -62c0 -35.333 17 -53 51 -53c23.333 0 54.333 10.667 93 32z" />
    <glyph glyph-name="two" unicode="&#x622;" horiz-adv-x="327" 
d="M331 613h-220.999l-52 -4c-8.66699 -0.666992 -18.667 -4 -30 -10c-11.333 -13.333 -21 -29.333 -29 -48l-81 30c23.333 51.333 48.666 85 75.999 101c18 10 47.667 15.667 89 17c52.667 0.666992 101 1 145 1h103v-87zM210.001 0h-85v564h85v-564z" />
    <glyph glyph-name="four" unicode="&#x623;" horiz-adv-x="282" 
d="M183 0h-85v564h85v-564zM105 634l-149.001 -75l-12 24l50 27c-30 16 -45 37.333 -45 64c0 30.667 15 54 45 70c8.66699 4.66699 17.667 7 27 7c10.667 -2.66699 24.334 -6.66699 41.001 -12l-10 -23c-3.33301 0.666992 -8 2 -14 4s-10.667 3.33301 -14 4
c-12 0 -23.333 -4.66699 -34 -14c-9.33301 -14.667 -14 -26.667 -14 -36c0 -26 13.333 -39.333 40 -40c10 0 20.667 2.66699 32 8c9.33301 1.33301 24 7.33301 44 18z" />
    <glyph glyph-name="acute" unicode="&#x624;" horiz-adv-x="437" 
d="M383 -11c0 -57.333 -22.5 -106.999 -67.5 -148.999s-96.5 -63 -154.5 -63h-113l-13 88h112c44 0 79.667 14 107 42c20 19.333 32.333 40.666 37 63.999c2 8 3 17.667 3 29c-68.667 0 -120.334 8.66699 -155.001 26c-47.333 24.667 -71.333 71 -72 139
c-0.666992 75.333 17.333 129 54 161c20.667 18 55.334 27 104.001 27c68 0 114 -28 138 -84c13.333 -29.333 20 -86 20 -170v-110zM294 89.001v89c0 58 -23 87 -69 87c-20 0 -36.667 -5.66699 -50 -17c-11.333 -14.667 -17 -40 -17 -76c0 -39.333 14 -64.333 42 -75
c14 -5.33301 45.333 -8 94 -8zM304 493.001l-147.998 -76l-13 25l51 27c-30 16.667 -45 38 -45 64c0 20 7.16699 37.667 21.5 53s31.166 23 50.499 23c14 -2 28 -5.66699 42 -11l-11 -22l-15 3c-6.66699 1.33301 -11.334 2.66602 -14.001 3.99902c-12 0 -23 -5 -33 -15
c-9.33301 -14 -14 -25.667 -14 -35c0 -25.333 13 -38.666 39 -39.999c6.66699 -0.666992 17.667 1.5 33 6.5s30 11.167 44 18.5z" />
    <glyph glyph-name="six" unicode="&#x625;" horiz-adv-x="282" 
d="M183 0h-85v564h85v-564zM231 -146l-149 -74.999l-12 24l50 27c-30 16.667 -45 38 -45 64c0 30.667 15 54 45 70c8.66699 4.66699 17.667 7 27 7c10.667 -2 24.334 -5.66699 41.001 -11l-10 -23c-3.33301 0.666992 -8 2 -14 4s-10.667 3.33301 -14 4
c-12 0 -23.333 -5 -34 -15c-9.33301 -14.667 -14 -26.667 -14 -36c0 -25.333 13.333 -38.333 40 -39c10 -0.666992 20.667 1.66602 32 6.99902c9.33301 2 23.666 8 42.999 18z" />
    <glyph glyph-name="Adieresis" unicode="&#x626;" horiz-adv-x="631" 
d="M600 5c0.666992 -37.333 -4.33398 -68.667 -15.001 -94c-12 -29.333 -28.667 -54.333 -50 -75c-41.333 -39.333 -91.333 -59 -150 -59h-138c-57.333 0 -106.333 22.5 -147 67.5s-61 98.5 -61 160.5v182h82v-193c0 -37.333 17 -71 51 -101c28.667 -20 59.667 -30 93 -30
h113c16.667 0 32 3 46 9c13.333 3.33301 28 11 44 23c30.667 24 46.334 53.333 47.001 88c0.666992 34 -27.333 54.333 -84 61h-120v150c0 46.667 15.333 83.667 46 111c28.667 31.333 65.334 47 110.001 47h106l3 -83h-106c-28.667 0 -50.334 -14 -65.001 -42
c-8 -24 -12 -57.333 -12 -100c81.333 0 135 -7 161 -21c30 -15.333 45.333 -49 46 -101zM288.999 299.999l-149 -75.001l-12 24l50 27c-30 16.667 -45 38.334 -45 65.001c0 30 15 53 45 69c8.66699 4.66699 17.667 7 27 7c10.667 -2 24.334 -5.66699 41.001 -11l-10 -23
c-3.33301 0.666992 -8 2 -14 4s-10.667 3.33301 -14 4c-12 0 -23.333 -4.66699 -34 -14c-9.33301 -15.333 -14 -27.333 -14 -36c0 -26 13.333 -39.333 40 -40c10 0 20.667 2.33301 32 7c9.33301 2 23.666 8 42.999 18z" />
    <glyph glyph-name="zero" unicode="&#x627;" horiz-adv-x="282" 
d="M183 0h-85v564h85v-564z" />
    <glyph glyph-name="less" unicode="&#x628;" horiz-adv-x="788" 
d="M755 143c0 -34.667 -12.6689 -67.168 -38.002 -97.501s-55.333 -45.5 -90 -45.5h-465c-35.333 0 -65.666 15.333 -90.999 46c-24 28.667 -36 61 -36 97v133h88v-120c0 -26.667 4.33301 -44.5 13 -53.5s26.334 -13.5 53.001 -13.5h411c28.667 0 48 6.66699 58 20
c4.66699 6.66699 7 22.334 7 47.001v120h90v-133zM478.998 -159.001c0 -26.667 -13.001 -46.001 -39.001 -58.001c-6 -3.33301 -14.667 -5 -26 -5c-15.333 0 -30 6 -44 18c-7.33301 6.66699 -11.666 13.334 -12.999 20.001c-3.33301 6 -5 14.333 -5 25c0 34 20.667 51 62 51
c43.333 0 65 -17 65 -51z" />
    <glyph glyph-name="cedilla" unicode="&#x629;" horiz-adv-x="396" 
d="M370 153c0.666992 -44 -15.999 -82.001 -49.999 -114.001s-73.333 -48.333 -118 -49c-46.667 0 -86.334 16.333 -119.001 49s-49 72.334 -49 119.001c0 39.333 10.667 72.666 32 99.999l26 34l43 45l-26 28l60 60l161 -166c26.667 -27.333 40 -62.666 40 -105.999z
M283.001 152.999c0 16 -4.66699 30.333 -14 43l-70 76l-35 -36l-30 -35l-9 -19l-5 -29c0 -12 6.33301 -28.333 19 -49c17.333 -19.333 38.333 -29 63 -29c17.333 0 33.333 4.5 48 13.5s23.667 21.167 27 36.5c4 8 6 17.333 6 28zM342.001 517.999
c0 -15.333 -5.66699 -28.001 -17 -38.001c-9.33301 -7.33301 -23.333 -12 -42 -14c-3.33301 0 -11 1 -23 3c-2 0.666992 -8 4.33398 -18 11.001c-12 12 -18 24.667 -18 38c0 33.333 19.667 50 59 50s59 -16.667 59 -50zM173.001 517.998
c0 -14 -5.83301 -26.168 -17.5 -36.501s-25.167 -15.5 -40.5 -15.5s-29.333 4.66699 -42 14c-10 10.667 -16 23.334 -18 38.001c0 33.333 20 50 60 50c38.667 0 58 -16.667 58 -50z" />
    <glyph glyph-name="D" unicode="&#x62a;" horiz-adv-x="788" 
d="M521 424c0 -16 -5.83301 -29.001 -17.5 -39.001s-25.5 -15 -41.5 -15c-14 0 -27.167 5.5 -39.5 16.5s-18.5 23.5 -18.5 37.5c0 30.667 19.333 46.334 58 47.001c39.333 0 59 -15.667 59 -47zM352 423.999c0 -16 -5.83301 -29.001 -17.5 -39.001s-25.5 -15 -41.5 -15
c-14 0 -27.667 5 -41 15c-10.667 12 -16 25 -16 39c0 30.667 19 46.334 57 47.001c39.333 0 59 -15.667 59 -47zM755 142.998c0 -34.667 -12.6689 -67.168 -38.002 -97.501s-55.333 -45.5 -90 -45.5h-465c-35.333 0 -65.666 15.333 -90.999 46c-24 28.667 -36 61 -36 97v133
h88v-120c0 -26.667 4.33301 -44.5 13 -53.5s26.334 -13.5 53.001 -13.5h411c28.667 0 48 6.66699 58 20c4.66699 6.66699 7 22.334 7 47.001v120h90v-133z" />
    <glyph glyph-name="H" unicode="&#x62b;" horiz-adv-x="788" 
d="M442 517c0 -15.333 -6.33203 -28.168 -18.999 -38.501s-26.334 -15.5 -41.001 -15.5c-16.667 0 -30.5 5.33301 -41.5 16s-16.5 23.334 -16.5 38.001c0 31.333 19.333 47 58 47c39.333 0 59.333 -15.667 60 -47zM527.001 391.998c0 -15.333 -5.99805 -27.667 -17.998 -37
c-8.66699 -8.66699 -22.334 -14 -41.001 -16c-15.333 0 -29.333 4.66699 -42 14c-6 8 -10 14 -12 18c-2.66699 9.33301 -4.33398 16.333 -5.00098 21c0 32.667 19.667 49 59 49s59 -16.333 59 -49zM358.003 391.997c0 -14 -5.16602 -25.833 -15.499 -35.5
s-24.833 -15.5 -43.5 -17.5c-16.667 0 -30 4.66699 -40 14c-12 13.333 -18 26.333 -18 39c-0.666992 32.667 18.666 49 57.999 49s59 -16.333 59 -49zM755.004 142.997c0 -34.667 -12.6689 -67.168 -38.002 -97.501s-55.333 -45.5 -90 -45.5h-465
c-35.333 0 -65.666 15.333 -90.999 46c-24 28.667 -36 61 -36 97v133h88v-120c0 -26.667 4.33301 -44.5 13 -53.5s26.334 -13.5 53.001 -13.5h411c28.667 0 48 6.66699 58 20c4.66699 6.66699 7 22.334 7 47.001v120h90v-133z" />
    <glyph glyph-name="L" unicode="&#x62c;" horiz-adv-x="541" 
d="M553 -425h-242.001c-84.667 0 -155.667 29 -213 87c-51.333 51.333 -77 114.333 -77 189c0 96.667 43 168.667 129 216l270 149c-8 15.333 -16.5 26.333 -25.5 33s-20.833 10 -35.5 10c-26 4.66699 -103.333 7 -232 7l-11 86h213c120.667 0 182 -60.333 184 -181
l-290 -163c-78.667 -44 -118 -98.667 -118 -164c0 -25.333 5 -47.333 15 -66c6.66699 -18 21.334 -38 44.001 -60c38.667 -38 80 -57 124 -57h257zM398.999 -165c0 -18 -6.33301 -32.667 -19 -44c-7.33301 -6.66699 -14 -11.167 -20 -13.5s-14 -3.5 -24 -3.5
c-42.667 0 -64 20.333 -64 61c0 35.333 21.333 53.333 64 54c41.333 0.666992 62.333 -17.333 63 -54z" />
    <glyph glyph-name="T" unicode="&#x62d;" horiz-adv-x="541" 
d="M554 -425l-241.999 -0.000976562c-92.667 0 -167.334 33 -224.001 99c-44 52 -66 109.333 -66 172v19l3 19c11.333 82 53 143 125 183l272 149c-12 22 -38.333 37.333 -79 46c-30 6 -69.667 8.33301 -119 7c-113.333 -2 -145.333 -3 -96 -3l-11 86h213
c58.667 0 104 -15.667 136 -47s48 -76 48 -134l-290 -163c-78.667 -44 -118 -98.667 -118 -164c0 -47.333 19.5 -89.666 58.5 -126.999s80.5 -56 124.5 -56h257z" />
    <glyph glyph-name="X" unicode="&#x62e;" horiz-adv-x="541" 
d="M370 512c0.666992 -18 -6 -32.667 -20 -44s-28.333 -17 -43 -17c-18 -0.666992 -34 5 -48 17c-11.333 13.333 -17 28 -17 44c0 34 21.667 51 65 51c42 0 63 -17 63 -51zM553 -425h-242.001c-84.667 0 -155.667 29 -213 87c-51.333 51.333 -77 114.333 -77 189
c0 96.667 43 168.667 129 216l270 149c-8 15.333 -16.5 26.333 -25.5 33s-20.833 10 -35.5 10c-26 4.66699 -103.333 7 -232 7l-11 86h213c120.667 0 182 -60.333 184 -181l-290 -163c-78.667 -44 -118 -98.667 -118 -164c0 -25.333 5 -47.333 15 -66
c6.66699 -18 21.334 -38 44.001 -60c38.667 -38 80 -57 124 -57h257z" />
    <glyph glyph-name="backslash" unicode="&#x62f;" horiz-adv-x="484" 
d="M462 118c0 -16.667 -2.66895 -32.334 -8.00195 -47.001s-14.666 -27 -27.999 -37c-22.667 -22.667 -54 -34 -94 -34h-274l-12 89h280c33.333 0 50 11 50 33c0 5.33301 -4.66699 16.333 -14 33l-198 210l59 60l199 -210c10.667 -11.333 20.334 -27.333 29.001 -48
c2.66699 -5.33301 5.16699 -13.166 7.5 -23.499s3.5 -18.833 3.5 -25.5z" />
    <glyph glyph-name="asciicircum" unicode="&#x630;" horiz-adv-x="484" 
d="M289 573c0 -17.333 -6.33301 -32 -19 -44s-27.667 -18 -45 -18c-19.333 0 -34.833 6.33301 -46.5 19s-17.5 27 -17.5 43c0 34.667 21.333 52 64 52s64 -17.333 64 -52zM461 118c0 -36 -12.499 -64.667 -37.499 -86s-55.833 -32 -92.5 -32h-274l-12 89h281
c32.667 0 49 11 49 33c0 11.333 -5 22.333 -15 33l-198 210l60 60l199 -210c23.333 -24.667 36.666 -57 39.999 -97z" />
    <glyph glyph-name="grave" unicode="&#x631;" horiz-adv-x="426" 
d="M375 16c0 -62 -21.5 -117.334 -64.5 -166.001s-95.167 -73 -156.5 -73h-117l-15 91h99c43.333 0 80 10.333 110 31c34.667 22.667 52 54.334 52 95.001v282h92v-260z" />
    <glyph glyph-name="b" unicode="&#x632;" horiz-adv-x="426" 
d="M355 517c0.666992 -34.667 -20.667 -55.668 -64 -63.001c-21.333 0 -37.666 6.33301 -48.999 19c-10 10.667 -15.333 25.334 -16 44.001c-0.666992 34.667 21 52 65 52c41.333 0 62.666 -17.333 63.999 -52zM373.999 15.999c0 -62 -21.5 -117.333 -64.5 -166
s-95.167 -73 -156.5 -73h-118l-14 91h100c76 0 126.667 26.667 152 80c6 14 9 29.333 9 46v282h92v-260z" />
    <glyph glyph-name="f" unicode="&#x633;" horiz-adv-x="1104" 
d="M1060 142c0 -41.333 -9.66699 -75.6689 -29 -103.002c-22 -32 -52.667 -48 -92 -48c-38 0 -79 20 -123 60c-27.333 -39.333 -62.333 -59.333 -105 -60c-33.333 0 -66.333 11.667 -99 35c0 -69.333 -21.167 -128.166 -63.5 -176.499s-94.166 -72.5 -155.499 -72.5h-134
c-58 0 -108.667 22.5 -152 67.5s-65 98.833 -65 161.5v183h86v-188c0 -39.333 13.667 -71.833 41 -97.5s60.666 -38.5 99.999 -38.5h116c38.667 0 71.5 13 98.5 39s40.5 58.333 40.5 97v275h88v-131c0 -20 9.66699 -37.667 29 -53
c2.66699 -3.33301 9.66699 -7.66602 21 -12.999c6 -2.66699 14.667 -4 26 -4c40 0 60 18.333 60 55v146h87v-129c0 -18.667 9 -37 27 -55c16.667 -11.333 33 -17 49 -17c40.667 0 61 18.333 61 55v146h88v-134z" />
    <glyph glyph-name="j" unicode="&#x634;" horiz-adv-x="1104" 
d="M844 517c0 -15.333 -6.33301 -28.167 -19 -38.5s-26.667 -15.5 -42 -15.5c-14.667 0 -27.5 5.5 -38.5 16.5s-17.5 23.5 -19.5 37.5c0 31.333 19.333 47 58 47c40.667 0 61 -15.667 61 -47zM928 391.999c0.666992 -30.667 -18.667 -48.333 -58 -53
c-17.333 0 -31.333 4.66699 -42 14c-3.33301 4 -7.33301 10 -12 18c-4 4.66699 -6 11.667 -6 21c0 32.667 20 49 60 49c38 0 57.333 -16.333 58 -49zM759.999 392c0 -14 -5.5 -25.833 -16.5 -35.5s-25.5 -15.5 -43.5 -17.5c-16 0 -29.333 4.66699 -40 14
c-3.33301 4 -8 10 -14 18c-0.666992 2.66699 -2 9.66699 -4 21c0 32.667 19.333 49 58 49c40 0 60 -16.333 60 -49zM1060 142c0 -41.333 -9.66504 -75.667 -28.998 -103c-22 -32 -52.667 -48 -92 -48c-42 0 -83 20 -123 60c-32 -39.333 -67 -59.333 -105 -60
c-27.333 0 -60.333 11.667 -99 35c0 -72.667 -21.5 -132.334 -64.5 -179.001s-94.5 -70 -154.5 -70h-134c-60 0 -111.167 23 -153.5 69s-63.5 99.333 -63.5 160v183h86v-188c0 -37.333 13.667 -69.333 41 -96s60.666 -40 99.999 -40h116c38 0 70.667 13 98 39
s41 58.333 41 97v275h88v-131c0 -20 9.33301 -37.667 28 -53c7.33301 -4.66699 19 -10 35 -16c3.33301 -0.666992 7.66602 -1 12.999 -1c40 0 60 18.333 60 55v146h87v-129c0 -21.333 9 -39.666 27 -54.999c7.33301 -4 16.333 -8.33301 27 -13c4.66699 -2.66699 12 -4 22 -4
c40.667 0 61 18.333 61 55v146h88v-134z" />
    <glyph glyph-name="n" unicode="&#x635;" horiz-adv-x="1114" 
d="M1089 156c0 -43.333 -12.834 -80.165 -38.501 -110.498s-64.5 -45.5 -116.5 -45.5h-240c-47.333 0 -77.666 15.333 -90.999 46c0 -76.667 -20.833 -140.667 -62.5 -192s-94.167 -77 -157.5 -77h-136c-59.333 0 -110.5 24.333 -153.5 73s-64.5 104 -64.5 166v173h89v-195
c0 -31.333 15 -60.166 45 -86.499s60.667 -39.5 92 -39.5h122c33.333 0 64.333 13.667 93 41s43 55.666 43 84.999v282h91v-131c0 -36.667 27.333 -55.334 82 -56.001c25.333 65.333 56 121 92 167c50 64 102 96 156 96c22 0 45 -6.83301 69 -20.5
s44.667 -37.834 62 -72.501l17 -50c4.66699 -12 7 -29.667 7 -53zM1004 166.001c0 30.667 -10.667 60.3311 -32 88.998c-6.66699 6.66699 -14 10 -22 10c-25.333 0 -55 -18.667 -89 -56c-20 -21.333 -35.333 -40 -46 -56c-12.667 -19.333 -25 -40.666 -37 -63.999h170
c17.333 0 31.333 9 42 27c9.33301 14.667 14 31.334 14 50.001z" />
    <glyph glyph-name="r" unicode="&#x636;" horiz-adv-x="1114" 
d="M920 515c0.666992 -15.333 -6.33301 -30 -21 -44c-8 -8 -22.333 -13.667 -43 -17c-18 0 -33 5.66699 -45 17s-18 26 -18 44c0 35.333 21 53 63 53c42.667 0 64 -17.667 64 -53zM1089 156c0 -48.667 -13.668 -86.832 -41.001 -114.499s-65.333 -41.5 -114 -41.5h-240
c-50.667 0 -81 15.333 -91 46c0 -75.333 -21 -139 -63 -191s-94.333 -78 -157 -78h-136c-60 0 -111.333 24 -154 72s-64 103.667 -64 167v173h89v-195c0 -30.667 14.5 -59.334 43.5 -86.001s60.167 -40 93.5 -40h122c30 0 60.167 13.667 90.5 41s45.5 55.666 45.5 84.999
v282h91v-131c0 -36.667 28 -55.334 84 -56.001c34 82.667 73.667 148.334 119 197.001c41.333 44 84 66 128 66c7.33301 0 19.333 -1.66699 36 -5c45.333 -19.333 77 -48.666 95 -87.999c14.667 -32.667 22.334 -67 23.001 -103zM1005 166.002c0 34 -11 63.667 -33 89
c-10.667 6.66699 -18 10 -22 10c-24 0 -53.333 -18.333 -88 -55s-62.667 -77 -84 -121h171c6 0 13.667 1 23 3c16 8 25.667 22.667 29 44c2.66699 7.33301 4 17.333 4 30z" />
    <glyph glyph-name="v" unicode="&#x637;" horiz-adv-x="517" 
d="M487 161c0 -45.333 -12.001 -83 -36.001 -113c-26 -32 -61 -48 -105 -48h-306l-18 89h73v475h87v-314c54.667 67.333 105.334 101.333 152.001 102c19.333 0 41 -6.66699 65 -20c26.667 -15.333 47.667 -39.333 63 -72c4.66699 -10 10.667 -26.667 18 -50
c4.66699 -12.667 7 -29 7 -49zM395.999 175c0.666992 37.333 -8.00098 63.999 -26.001 79.999c-2 1.33301 -5.66699 2.66602 -11 3.99902c-7.33301 0.666992 -13 2.33398 -17 5.00098c-28 0 -60.667 -23 -98 -69c-28 -34 -51 -69.333 -69 -106h171c10.667 0 23.667 9 39 27
c6.66699 14.667 10.334 34.334 11.001 59.001z" />
    <glyph glyph-name="z" unicode="&#x638;" horiz-adv-x="517" 
d="M410 517c0 -18.667 -6.5 -33.832 -19.5 -45.499s-27.5 -17.5 -43.5 -17.5c-19.333 0 -35 5.66699 -47 17s-18 26.666 -18 45.999c0 34.667 21.667 52 65 52c42 0 63 -17.333 63 -52zM486 161.002c0 -15.333 -3.33301 -36 -10 -62c-3.33301 -10 -7 -18.667 -11 -26
l-14 -24c-26.667 -32.667 -62.667 -49 -108 -49h-304l-18 89h73v475h87v-314c54 67.333 104.667 101.333 152 102c21.333 0 43 -6.66699 65 -20c28 -18 49.5 -42.5 64.5 -73.5s22.833 -63.5 23.5 -97.5zM395 175.002c1.33301 39.333 -7.33203 66 -25.999 80
c-2 2 -5 3.5 -9 4.5l-18 4.5c-40 0 -84.333 -38 -133 -114c-16 -24 -27.333 -44.333 -34 -61h168c33.333 0 50.666 28.667 51.999 86z" />
    <glyph glyph-name="asciitilde" unicode="&#x639;" horiz-adv-x="534" 
d="M523 -425l-232.002 -0.000976562c-78 0 -145.333 25.667 -202 77s-85 115.666 -85 192.999c0 52.667 14.5 100.334 43.5 143.001s76.167 78 141.5 106c-19.333 36 -29.333 70.667 -30 104c-0.666992 44 16 81.667 50 113l22 16c6.66699 3.33301 17.334 8 32.001 14
c6.66699 2 17.667 4.33301 33 7c10.667 2.66699 22 4 34 4c44 0 93.333 -22 148 -66l-42 -67c-22 15.333 -44 27.5 -66 36.5s-40.333 13.5 -55 13.5c-32 0 -52.667 -15.667 -62 -47c-1.33301 -6 -3.33301 -12.667 -6 -20v-15c0 -36 12.667 -65 38 -87
c8.66699 -7.33301 20.334 -11 35.001 -11h175l13 -89h-292c-37.333 0 -67.333 -15 -90 -45s-34 -67 -34 -111c0 -45.333 15.667 -87.166 47 -125.499s75 -57.5 131 -57.5h240z" />
    <glyph glyph-name="afii57434" unicode="&#x63a;" horiz-adv-x="534" 
d="M405 514c0 -17.333 -6.66699 -32.334 -20 -45.001c-15.333 -11.333 -30 -17 -44 -17c-19.333 0 -35.333 6 -48 18c-11.333 14.667 -17 29.334 -17 44.001c0 36 21.667 54 65 54c42.667 0 64 -18 64 -54zM521 -425.001l-229.999 -0.00195312c-44 0 -82 7 -114 21
c-39.333 17.333 -70.666 38.333 -93.999 63c-52.667 54.667 -79 116.667 -79 186c0 52.667 14.667 99 44 139c32.667 44.667 79.667 81.334 141 110.001c-20 37.333 -30.333 72 -31 104c0 24.667 7.33301 50.334 22 77.001c29.333 51.333 75.666 77.333 138.999 78
c52.667 0 105 -22.333 157 -67l-41 -67c-24 16 -46.333 28.333 -67 37s-38.334 13 -53.001 13l-24 -4c-29.333 -12.667 -44.333 -37.667 -45 -75c0 -25.333 6.66699 -49.333 20 -72c16 -19.333 33.667 -29 53 -29h176l12 -89h-292c-38.667 0 -69.667 -17 -93 -51
c-20 -29.333 -30 -64.333 -30 -105c0 -48 14.333 -89.667 43 -125c31.333 -38.667 76 -58 134 -58h240z" />
    <glyph glyph-name="period" unicode="&#x640;" horiz-adv-x="215" 
d="M242 0h-263v89h263v-89z" />
    <glyph glyph-name="afii57441" unicode="&#x641;" horiz-adv-x="788" 
d="M653 527c0 -17.333 -6.66699 -31.668 -20 -43.001s-27.666 -17 -42.999 -17c-42.667 0 -64.334 20 -65.001 60c-0.666992 34.667 21 52.334 65 53.001c41.333 0.666992 62.333 -17 63 -53zM752 158.998c1.33301 -56.667 -16.334 -99.999 -53.001 -129.999
c-24 -19.333 -51.667 -29 -83 -29h-459c-32 0 -62.333 14.333 -91 43c-23.333 30 -35 63.333 -35 100v133h89v-120c0 -24 2.33301 -39.667 7 -47c8.66699 -13.333 27.667 -20 57 -20h422c27.333 0 45 5.66699 53 17c0.666992 5.33301 3.66699 21.666 9 48.999
c-82.667 0 -134.667 3.66699 -156 11c-47.333 16 -71 55.667 -71 119c0 44.667 13.5 79 40.5 103s63.167 36.333 108.5 37c40.667 0.666992 77.334 -15 110.001 -47s49.667 -71.667 51 -119zM665 236.999c0 46.667 -17.667 77.999 -53 93.999c-7.33301 4.66699 -17 7 -29 7
c-45.333 0 -68 -19 -68 -57c0 -21.333 10.667 -34.666 32 -39.999l37 -3z" />
    <glyph glyph-name="afii57442" unicode="&#x642;" horiz-adv-x="656" 
d="M586 517c0 -16 -5.83301 -28.667 -17.5 -38s-25.5 -14 -41.5 -14s-29.833 4.66699 -41.5 14s-17.5 22 -17.5 38c0 31.333 19.667 47 59 47s59 -15.667 59 -47zM415 517c0 -15.333 -5.66797 -27.833 -17.001 -37.5s-24.666 -14.5 -39.999 -14.5
c-16.667 0 -31 4.5 -43 13.5s-18 21.833 -18 38.5c0 31.333 20.333 47 61 47c38 0 57 -15.667 57 -47zM612.999 171l-0.998047 -31.999l-3 -39c-4.66699 -51.333 -28.334 -94.5 -71.001 -129.5s-90.334 -52.5 -143.001 -52.5h-135c-62 0 -112.833 22.667 -152.5 68
s-59.5 100 -59.5 164v176h82v-179c0 -40 13.333 -74.333 40 -103s59 -43 97 -43h123c40.667 0 74 15 100 45s39.333 65.667 40 107c-82 0 -134 3.66699 -156 11c-48 15.333 -72 54.666 -72 117.999c0 42 13.667 75.5 41 100.5s62 37.833 104 38.5c40 0 77 -14.333 111 -43
c16 -13.333 29.333 -32.333 40 -57c3.33301 -8 7 -19.667 11 -35c2.66699 -9.33301 4 -22.333 4 -39v-76zM529.001 233.001c0 28.667 -10.333 54.667 -31 78c-14 15.333 -32.667 23 -56 23c-12.667 0 -27.667 -4.33301 -45 -13c-3.33301 -2.66699 -7.33301 -8 -12 -16
c-2.66699 -5.33301 -4.66699 -11.333 -6 -18c0 -24 7.66699 -39.333 23 -46c18 -5.33301 60.333 -8 127 -8z" />
    <glyph glyph-name="afii57443" unicode="&#x643;" horiz-adv-x="788" 
d="M612 89l-423.001 -0.00195312c-30 0 -49.333 6.66699 -58 20c-5.33301 8.66699 -8 24.334 -8 47.001v120h-88v-133c0 -37.333 12.333 -70.5 37 -99.5s54.334 -43.5 89.001 -43.5h453c38 0 69.667 10.333 95 31c28 22.667 42 52.334 42 89.001l-5 25l-3 27v403l-85 -1
v-446c0 -26 -15.333 -39 -46 -39zM468.999 276.998l-149 -75l-12 24l50 27c-30 16.667 -45 38 -45 64c0 30.667 15 54 45 70c8.66699 4.66699 17.667 7 27 7c10.667 -2 24.334 -5.66699 41.001 -11l-10 -23c-3.33301 0.666992 -8 2 -14 4s-10.667 3.33301 -14 4
c-12 0 -23.333 -4.66699 -34 -14c-9.33301 -15.333 -14 -27.666 -14 -36.999c0 -25.333 13.333 -38.333 40 -39c10 -0.666992 20.667 1.66602 32 6.99902c9.33301 2 23.666 8 42.999 18z" />
    <glyph glyph-name="afii57444" unicode="&#x644;" horiz-adv-x="667" 
d="M619 11c0 -64 -20.999 -119.002 -62.999 -165.002s-94.667 -69 -158 -69h-134c-56 0 -106.333 24.333 -151 73s-67 100.334 -67 155.001v184h89v-195c0 -36 14.667 -66 44 -90s62.666 -36 99.999 -36h113c34 0 65.667 12.833 95 38.5s44 54.834 44 87.501v570h88v-553z
" />
    <glyph glyph-name="ordfeminine" unicode="&#x645;" horiz-adv-x="562" 
d="M532 147c0 -42 -15.168 -77.168 -45.501 -105.501s-66.5 -42.833 -108.5 -43.5c-40.667 0 -76.667 13.667 -108 41s-47 67 -47 119v108l-14 1c-32.667 2 -59 -15.333 -79 -52c-4.66699 -11.333 -7 -23.666 -7 -36.999v-401h-85v390c0 54.667 15.333 99.167 46 133.5
s73 51.5 127 51.5h181c70 0 113 -30 129 -90c6.66699 -26 10.334 -64.333 11.001 -115zM445.999 152.999c0 54 -5.00098 85.667 -15.001 95c-6.66699 6.66699 -19.667 10.667 -39 12c-18 4 -45.667 6 -83 6v-123c0 -15.333 7 -29.333 21 -42
c12.667 -7.33301 29.334 -12.333 50.001 -15c44 0 66 22.333 66 67z" />
    <glyph glyph-name="registered" unicode="&#x646;" horiz-adv-x="656" 
d="M358 297c0 -17.333 -6.83301 -31.668 -20.5 -43.001s-28.5 -17 -44.5 -17c-18 0 -32.833 5.5 -44.5 16.5s-17.5 25.5 -17.5 43.5c0 34.667 20.667 52 62 52c43.333 0.666992 65 -16.666 65 -51.999zM607 14.998c0 -70.667 -23.333 -129.668 -70 -177.001
c-40 -40.667 -90.667 -61 -152 -61h-136c-56 0 -105.167 22.833 -147.5 68.5s-63.5 98.834 -63.5 159.501v184h85v-195c0 -36 14.667 -66.5 44 -91.5s62.333 -37.5 99 -37.5h113c36.667 0 69 12.333 97 37c16 14 27 28 33 42s9 30.667 9 50v282h89v-261z" />
    <glyph glyph-name="paragraph" unicode="&#x647;" horiz-adv-x="396" 
d="M370 153c0.666992 -44 -15.999 -82.001 -49.999 -114.001s-73.333 -48.333 -118 -49c-46.667 0 -86.334 16.333 -119.001 49s-49 72.334 -49 119.001c0 39.333 10.667 72.666 32 99.999l26 34l43 45l-26 28l60 60l161 -166c26.667 -27.333 40 -62.666 40 -105.999z
M283.001 152.999c0 16 -4.66699 30.333 -14 43l-70 76l-35 -36l-30 -35l-9 -19l-5 -29c0 -12 6.33301 -28.333 19 -49c17.333 -19.333 38.333 -29 63 -29c17.333 0 33.333 4.5 48 13.5s23.667 21.167 27 36.5c4 8 6 17.333 6 28z" />
    <glyph glyph-name="twosuperior" unicode="&#x648;" horiz-adv-x="437" 
d="M383 -11c0 -57.333 -22.5 -106.999 -67.5 -148.999s-96.5 -63 -154.5 -63h-113l-13 88h112c44 0 79.667 14 107 42c20 19.333 32.333 40.666 37 63.999c2 8 3 17.667 3 29c-68.667 0 -120.334 8.66699 -155.001 26c-47.333 24.667 -71.333 71 -72 139
c-0.666992 75.333 17.333 129 54 161c20.667 18 55.334 27 104.001 27c68 0 114 -28 138 -84c13.333 -29.333 20 -86 20 -170v-110zM294 89.001v89c0 58 -23 87 -69 87c-20 0 -36.667 -5.66699 -50 -17c-11.333 -14.667 -17 -40 -17 -76c0 -39.333 14 -64.333 42 -75
c14 -5.33301 45.333 -8 94 -8z" />
    <glyph glyph-name="ugrave" unicode="&#x649;" horiz-adv-x="631" 
d="M600 5c0.666992 -37.333 -4.33398 -68.667 -15.001 -94c-12 -29.333 -28.667 -54.333 -50 -75c-41.333 -39.333 -91.333 -59 -150 -59h-138c-57.333 0 -106.333 22.5 -147 67.5s-61 98.5 -61 160.5v182h82v-193c0 -37.333 17 -71 51 -101c28.667 -20 59.667 -30 93 -30
h113c16.667 0 32 3 46 9c13.333 3.33301 28 11 44 23c30.667 24 46.334 53.333 47.001 88c0.666992 34 -27.333 54.333 -84 61h-120v150c0 46.667 15.333 83.667 46 111c28.667 31.333 65.334 47 110.001 47h106l3 -83h-106c-28.667 0 -50.334 -14 -65.001 -42
c-8 -24 -12 -57.333 -12 -100c81.333 0 135 -7 161 -21c30 -15.333 45.333 -49 46 -101z" />
    <glyph glyph-name="Agrave" unicode="&#x64a;" horiz-adv-x="631" 
d="M600 5c0.666992 -37.333 -4.33398 -68.667 -15.001 -94c-12 -29.333 -28.667 -54.333 -50 -75c-41.333 -39.333 -91.333 -59 -150 -59h-138c-57.333 0 -106.333 22.5 -147 67.5s-61 98.5 -61 160.5v182h82v-193c0 -37.333 17 -71 51 -101c28.667 -20 59.667 -30 93 -30
h113c16.667 0 32 3 46 9c13.333 3.33301 28 11 44 23c30.667 24 46.334 53.333 47.001 88c0.666992 34 -27.333 54.333 -84 61h-120v150c0 46.667 15.333 83.667 46 111c28.667 31.333 65.334 47 110.001 47h106l3 -83h-106c-28.667 0 -50.334 -14 -65.001 -42
c-8 -24 -12 -57.333 -12 -100c81.333 0 135 -7 161 -21c30 -15.333 45.333 -49 46 -101zM451.999 -320.001c0 -15.333 -5.66699 -28.001 -17 -38.001c-8.66699 -7.33301 -22.667 -12.666 -42 -15.999c-14 0 -27.667 5 -41 15c-12 12.667 -18 25.667 -18 39
c0 32 19.667 48 59 48s59 -16 59 -48zM282.999 -320.002c0 -16 -5.66699 -29 -17 -39s-25 -15 -41 -15c-14.667 0 -28.667 5 -42 15c-10 12 -16 25 -18 39c0 32 20 48 60 48c38.667 0 58 -16 58 -48z" />
    <glyph glyph-name="Oslash" unicode="&#x64b;" 
d="M222 838l-264 -66l-13 40l265 68zM222 751l-264 -65l-13 39l265 68z" />
    <glyph glyph-name="Udieresis" unicode="&#x64c;" 
d="M220 818c0.666992 -45.333 -27.333 -74.667 -84 -88l-181 -43l-10 38c28 7.33301 42 23 42 47c0 13.333 -4.66699 20 -14 20c-7.33301 0 -16.666 -3.33301 -27.999 -10l-19 27c16 22 34 33 54 33c27.333 0 41 -14.667 41 -44c0 -22.667 -6.33301 -42.334 -19 -59.001
c14 3.33301 36.667 10.333 68 21c-14.667 18 -22 36 -22 54c0 20 8.66699 38.333 26 55s35.666 25 54.999 25c23.333 0.666992 44.333 -7.16602 63 -23.499s28 -33.833 28 -52.5zM173 811.999c0.666992 12 -4.66699 22 -16 30c-6 4.66699 -13.667 7 -23 7
c-26.667 0 -40 -12.333 -40 -37c0 -11.333 4 -20 12 -26c8 -8 17.333 -12 28 -12c10 0 19 3.66699 27 11s12 16.333 12 27z" />
    <glyph glyph-name="Uacute" unicode="&#x64d;" 
d="M218 -511l-265 -66l-12 39l264 69zM218 -598l-265 -66l-12 39l264 69z" />
    <glyph glyph-name="Ograve" unicode="&#x64e;" 
d="M222 751l-264 -65l-13 39l265 68z" />
    <glyph glyph-name="Odieresis" unicode="&#x64f;" 
d="M220 818c0.666992 -45.333 -27.333 -74.668 -84 -88.001l-181 -43l-10 38c40.667 8 82.334 19.667 125.001 35c-14.667 18 -22 36 -22 54c0 20 8.66699 38.333 26 55s35.666 25 54.999 25c23.333 0.666992 44.333 -7.16602 63 -23.499s28 -33.833 28 -52.5zM173 811.998
c0.666992 12 -4.66699 22 -16 30c-6 4.66699 -13.667 7 -23 7c-26.667 0 -40 -12.333 -40 -37c0 -11.333 4 -20 12 -26c8 -8 17.333 -12 28 -12c10 0 19 3.66699 27 11s12 16.333 12 27z" />
    <glyph glyph-name="Ocircumflex" unicode="&#x650;" 
d="M222 -511l-264 -66l-13 39l265 69z" />
    <glyph glyph-name="Thorn" unicode="&#x651;" 
d="M216 784c0.666992 -18.667 -4.33398 -35.6689 -15.001 -51.002c-11.333 -12.667 -25.666 -19 -42.999 -19c-32.667 0 -57.667 13 -75 39c-20 -43.333 -50 -65 -90 -65c-18 0 -32 7.33301 -42 22c-10 11.333 -15 25.333 -15 42c-0.666992 24 6.66602 53 21.999 87l32 -17
c-6 -15.333 -11 -31.666 -15 -48.999c0 -22.667 9.33301 -34 28 -34c36.667 0 54.334 30.667 53.001 92l43 24c0.666992 -61.333 16.667 -92 48 -92c19.333 0 29 10.667 29 32c0 12 -8.33301 30.333 -25 55l34 25c20.667 -29.333 31 -59.666 31 -90.999z" />
    <glyph glyph-name="icircumflex" unicode="&#x652;" 
d="M174 784c0 -26.667 -9.33203 -49.501 -27.999 -68.501s-41.334 -28.5 -68.001 -28.5s-49.334 9.5 -68.001 28.5s-28 41.833 -28 68.5c0 24.667 9.83301 46.667 29.5 66s41.834 29 66.501 29c26 0 49 -10.333 69 -31c18 -19.333 27 -40.666 27 -63.999zM127.001 784.999
c0 13.333 -4.33301 24.501 -13 33.501s-21 13.5 -37 13.5c-12.667 0 -24 -5 -34 -15s-15 -21 -15 -33c0 -14.667 4.83301 -26.834 14.5 -36.501s21.5 -14.5 35.5 -14.5c12.667 0 24 4.66699 34 14c10 7.33301 15 20 15 38z" />
    <glyph glyph-name="exclam" unicode="&#x660;" horiz-adv-x="592" 
d="M453 158c0 -36.667 -16.8311 -70.333 -50.498 -101s-68.834 -46 -105.501 -46c-38.667 0 -74.667 15 -108 45s-50 64 -50 102c0 34.667 16.5 69.5 49.5 104.5s69.167 52.5 108.5 52.5c37.333 0 72.666 -16.667 105.999 -50s50 -69 50 -107zM383.002 158.001
c0 32.667 -18.667 59.333 -56 80c-8.66699 4.66699 -18.667 7 -30 7c-22.667 0 -43 -9 -61 -27s-27 -38 -27 -60c0 -20 9 -39.667 27 -59c4 -4 13.333 -10 28 -18c10 -4 21 -6 33 -6c22 0 41.833 8 59.5 24s26.5 35.667 26.5 59z" />
    <glyph glyph-name="quotedbl" unicode="&#x661;" horiz-adv-x="592" 
d="M360 -99l-85 -0.000976562v271c0 33.333 -3.33301 79.333 -10 138c-2 16.667 -6.33301 39 -13 67l-8 32c-2 12.667 -6 25.334 -12 38.001l84 28l31 -118c2 -20.667 5.33301 -53 10 -97c2 -18 3 -47.333 3 -88v-271z" />
    <glyph glyph-name="numbersign" unicode="&#x662;" horiz-adv-x="592" 
d="M469 322c2 -43.333 -20.001 -78.666 -66.001 -105.999c-13.333 -7.33301 -24 -11.666 -32 -12.999c-5.33301 -2 -16.333 -3.33301 -33 -4c-26.667 -0.666992 -55 8.66602 -85 27.999l1 -326h-89v257c0 79.333 -7.33301 155 -22 227
c-4.66699 22 -11.334 42.667 -20.001 62l86 28l35 -145c8.66699 -36.667 30.334 -55 65.001 -55c18 0 34 6 48 18c4.66699 4.66699 9.33398 12 14.001 22c2.66699 5.33301 4.66699 14.666 6 27.999l-14 106l29 10l52 17l17 -83c4 -18.667 6.33301 -36.667 7 -54z" />
    <glyph glyph-name="dollar" unicode="&#x663;" horiz-adv-x="592" 
d="M568 332c2 -26.667 -10 -55.999 -36 -87.999c-25.333 -24 -55.333 -36.667 -90 -38c-34 -1.33301 -70.333 19 -109 61c0 -42 -30.667 -63.333 -92 -64c-29.333 0 -58.333 7.66699 -87 23l1 -325h-87v257c0 113.333 -14.333 209.666 -43 288.999l86 28l33 -145
c8.66699 -36.667 30.667 -55 66 -55c11.333 0 20.333 1.33301 27 4c4 2 11.333 6.66699 22 14c12.667 12 20 28.667 22 50l-17 106l83 31c14 -76 20.333 -128 19 -156l-1 -24c14.667 -18 33 -27 55 -27c18.667 0 33.667 6.33301 45 19c12 10.667 18.667 27.667 20 51
l-15 106l82 26l15 -117z" />
    <glyph glyph-name="ampersand" unicode="&#x664;" horiz-adv-x="592" 
d="M526 228c-25.333 -12 -55.333 -23.334 -90 -34.001l-43 -7c-14 -2 -28.667 -3 -44 -3c-27.333 0 -52.666 2.66699 -75.999 8c-28.667 6.66699 -55.334 15.667 -80.001 27l1 -318h-86v264c0 41.333 -3 85.333 -9 132c-0.666992 4.66699 -2 12 -4 22
c0 2.66699 -0.666992 6.33398 -2 11.001c0 8.66699 -2.33301 22 -7 40l-20 77l83 28l23 -93l15 -79l45 -21c0 22 0.333008 38 1 48c2.66699 16 9.33398 38.667 20.001 68c4.66699 10 11.334 20.333 20.001 31c15.333 18 32.333 30.333 51 37c16.667 8.66699 38.667 13 66 13
c33.333 0 70 -9.33301 110 -28l-30 -75c-24.667 17.333 -49.334 26 -74.001 26c-29.333 0.666992 -52.666 -11.333 -69.999 -36c-2.66699 -2.66699 -6.33398 -8.5 -11.001 -17.5s-6.66699 -18.833 -6 -29.5l2 -22c9.33301 -24.667 30.666 -37 63.999 -37
c29.333 0 70.333 13 123 39z" />
    <glyph glyph-name="parenleft" unicode="&#x665;" horiz-adv-x="592" 
d="M569 37c0 -45.333 -16.5 -82.3311 -49.5 -110.998s-72.5 -43.334 -118.5 -44.001c-44.667 -0.666992 -82.667 10.666 -114 33.999c-38.667 -22.667 -77.334 -34.667 -116.001 -36c-45.333 -0.666992 -81.666 16.333 -108.999 51c-25.333 31.333 -38 70.333 -38 117
c0 74 28.667 146.667 86 218l96 119l-34 23l56 68c227.333 -170 341 -316.333 341 -439zM476 55.002c0 23.333 -8 49.835 -24 79.502s-38.333 60.5 -67 92.5c-30.667 33.333 -68.334 68.333 -113.001 105c-104 -106.667 -156 -197.334 -156 -272.001
c0 -24.667 6.33301 -44.834 19 -60.501s30 -23.5 52 -23.5c24.667 0 43 9.66699 55 29c10 12 15.667 28.667 17 50l-5 33h87l5 -15l1 -19l-1 -33c0 -4.66699 -2.66699 -13.667 -8 -27c16.667 -10.667 35.667 -16 57 -16c40.667 0 66.334 16 77.001 48
c2.66699 7.33301 4 17 4 29z" />
    <glyph glyph-name="asterisk" unicode="&#x666;" horiz-adv-x="592" 
d="M476 237c-23.333 -20.667 -46.333 -44.665 -69 -71.998l-74 -91c-8 -9.33301 -30 -41 -66 -95c-19.333 -28 -40 -61.333 -62 -100l-77 48c13.333 26.667 33 59.667 59 99c18 26.667 51.667 72 101 136c-55.333 0 -98.666 16 -129.999 48
c-27.333 29.333 -41 65.666 -41 108.999c0 55.333 23.333 101.333 70 138c24.667 15.333 52 23 82 23c36 0 74 -10.333 114 -31l-28 -79c-26 14.667 -50 22 -72 22c-26.667 0 -49.334 -12.333 -68.001 -37c-6.66699 -13.333 -10 -25.333 -10 -36s2.66699 -22 8 -34
c11.333 -25.333 34.333 -38 69 -38c18 0 37 3.66699 57 11c16.667 3.33301 38.667 13.666 66 30.999z" />
    <glyph glyph-name="plus" unicode="&#x667;" horiz-adv-x="592" 
d="M543 437l-70.999 -125c-26.667 -48 -48.334 -91 -65.001 -129c-24 -56.667 -49.667 -150.667 -77 -282h-70c-13.333 102.667 -38 196.667 -74 282c-10.667 25.333 -28.667 61.333 -54 108l-38 68c-8 16 -22.333 41.667 -43 77l77 40
c24.667 -40.667 46.334 -80 65.001 -118c23.333 -48.667 39.666 -85 48.999 -109l50 -185l11 -2l11 59l16 54l23 73l17 45c6.66699 16 15.667 34.333 27 55l71 128z" />
    <glyph glyph-name="comma" unicode="&#x668;" horiz-adv-x="592" 
d="M543 -55l-39 -19.002l-37 -20l-69 122c-13.333 26 -28.333 60.667 -45 104l-50 187h-11c-18 -85.333 -34.667 -147 -50 -185l-14 -35c-18.667 -47.333 -52.334 -111.666 -101.001 -192.999l-38 20l-40 19c40.667 68.667 68.667 117 84 145
c24.667 44.667 42.334 81 53.001 109l23 60l21 68c12 39.333 23 90.333 33 153l68 -1c12 -69.333 22.667 -120.666 32 -153.999c12.667 -42.667 27.667 -85 45 -127l21 -50l64 -121z" />
    <glyph glyph-name="hyphen" unicode="&#x669;" horiz-adv-x="592" 
d="M458 -99h-88v302l-51 -13l-46 -4c-41.333 0 -74.166 11.333 -98.499 34s-36.833 54 -37.5 94c-0.666992 60.667 21.666 107 66.999 139c11.333 8.66699 24.166 15.334 38.499 20.001s28.833 7 43.5 7c14 0 29 -1.66699 45 -5c12.667 -4.66699 28.667 -12.334 48 -23.001
c24.667 -13.333 45 -48 61 -104c0.666992 -8.66699 3 -21.667 7 -39c1.33301 -8.66699 3 -20.667 5 -36c0.666992 -8.66699 2.33398 -22.667 5.00098 -42c0.666992 -11.333 1 -25.333 1 -42v-288zM362 293l-5.00098 36c-1.33301 6 -4.33301 16 -9 30
c-5.33301 16.667 -17 29 -35 37l-28 6c-27.333 0 -47.666 -12 -60.999 -36c-8.66699 -16 -13 -29.667 -13 -41v-11c0 -4 1.66699 -9 5 -15c9.33301 -24 28 -36 56 -36c24 0 54 10 90 30z" />
    <glyph glyph-name="Ebreve" unicode="&#x66a;" horiz-adv-x="759" 
d="M723 70c0 -34.667 -15.667 -66.666 -47 -95.999c-16 -14.667 -31.667 -24.667 -47 -30c-16 -8.66699 -33.333 -13 -52 -13c-36.667 0 -71 14.167 -103 42.5s-48 60.5 -48 96.5c0 33.333 16.667 66.166 50 98.499s67 48.5 101 48.5c36 0 69.333 -15.5 100 -46.5
s46 -64.5 46 -100.5zM582 524.001l-333 -606h-90l331 606h92zM331 383.001c0 -34 -16.666 -65.333 -49.999 -94c-17.333 -15.333 -33.333 -26.333 -48 -33s-31.667 -10 -51 -10c-34.667 0 -68.334 14 -101.001 42c-8 9.33301 -13.667 17 -17 23
c-7.33301 6.66699 -13 14.334 -17 23.001c-2 5.33301 -5.33301 13.666 -10 24.999c-0.666992 10.667 -1 18.667 -1 24c0 36 15.333 69.167 46 99.5s64 46.166 100 47.499c34 0.666992 67.333 -14.666 100 -45.999s49 -65 49 -101zM659.001 70.001
c0 10 -1.99902 19.667 -5.99902 29c-2.66699 6.66699 -9.66699 16 -21 28c-16.667 18 -35 27 -55 27c-14 0 -29 -5.83301 -45 -17.5s-28 -24.167 -36 -37.5c-4 -9.33301 -6 -19 -6 -29c0 -22 9 -40.833 27 -56.5s38 -23.5 60 -23.5c17.333 0 35.166 8 53.499 24
s27.833 34.667 28.5 56zM267.002 383.001c0 6 -2.33203 16.334 -6.99902 31.001c-17.333 34.667 -43.333 52.334 -78 53.001c-5.33301 0 -15.333 -2.33301 -30 -7c-8.66699 -3.33301 -18 -10 -28 -20c-17.333 -16 -26 -35 -26 -57c0 -22.667 8.16699 -41.334 24.5 -56.001
s36.166 -22.334 59.499 -23.001c21.333 0 40.833 7.83301 58.5 23.5s26.5 34.167 26.5 55.5z" />
    <glyph glyph-name="Ccaron" unicode="&#x66b;" horiz-adv-x="267" 
d="M201 205c0 -68 -2 -110 -6 -126c-12.667 -49.333 -45 -75.666 -97 -78.999v32c23.333 3.33301 40.333 13.666 51 30.999c8 16.667 12 42.667 12 78c-63.333 0 -95 21.333 -95 64c-0.666992 38.667 21.333 58 66 58c46 0 69 -19.333 69 -58z" />
    <glyph glyph-name="ograve" unicode="&#x670;" 
d="M109 855l-16 -169h-28l-18 169h62z" />
    <glyph glyph-name="colon" unicode="&#x671;" horiz-adv-x="282" 
d="M183 0h-85v564h85v-564z" />
    <glyph glyph-name="eth" unicode="&#x674;" 
d="M242 806l-157 -79.999l-14 26l55 29c-32.667 16 -49 38.667 -49 68c0 19.333 7.33301 37.666 22 54.999c17.333 16.667 35.333 25 54 25c14 -3.33301 28.667 -7.33301 44 -12l-11 -24c-4 0.666992 -9.33301 2 -16 4c-3.33301 0.666992 -8 2 -14 4
c-13.333 0 -25 -5.33301 -35 -16c-10 -14 -15 -26 -15 -36c0 -28 13.667 -42.333 41 -43c18 0 45 9 81 27z" />
    <glyph glyph-name="at" unicode="&#x67e;" horiz-adv-x="788" 
d="M755 143c0 -34.667 -12.6689 -67.168 -38.002 -97.501s-55.333 -45.5 -90 -45.5h-465c-35.333 0 -65.666 15.333 -90.999 46c-24 28.667 -36 61 -36 97v133h88v-120c0 -26.667 4.33301 -44.5 13 -53.5s26.334 -13.5 53.001 -13.5h411c28.667 0 48 6.66699 58 20
c4.66699 6.66699 7 22.334 7 47.001v120h90v-133zM553.998 -167.001c0 -31.333 -19.665 -47.333 -58.998 -48c-38.667 0 -58.334 16 -59.001 48c-0.666992 13.333 4.66602 26.333 15.999 39c12.667 8.66699 27 13 43 13c6.66699 0 13.667 -1.16699 21 -3.5s14 -5.5 20 -9.5
c12 -12.667 18 -25.667 18 -39zM385 -167.001c0 -31.333 -19.666 -47.333 -58.999 -48c-39.333 0 -59 16 -59 48c0 13.333 5.33301 26.333 16 39c13.333 8.66699 27.666 13 42.999 13c14.667 0 28.667 -4.33301 42 -13c8.66699 -12 14 -22 16 -30
c0.666992 -2.66699 1 -5.66699 1 -9zM466.001 -292.001c0 -32.667 -19.667 -49.002 -59 -49.002s-59 16.333 -59 49c0 14.667 5.33301 27.334 16 38.001c1.33301 0.666992 7.66602 4.66699 18.999 12c17.333 2 25.333 3 24 3c16 0 29.667 -5 41 -15
c6.66699 -6.66699 10.334 -13 11.001 -19c4.66699 -7.33301 7 -13.666 7 -18.999z" />
    <glyph glyph-name="P" unicode="&#x686;" horiz-adv-x="541" 
d="M498 -109c0 -31.333 -19.333 -46.999 -58 -46.999c-40 0 -60 15.667 -60 47c0 22.667 12.333 39.667 37 51c7.33301 2 15 3 23 3c15.333 0 28.833 -5.33301 40.5 -16s17.5 -23.334 17.5 -38.001zM551 -424.999l-242.001 -0.000976562c-86 0 -157.667 29 -215 87
c-50.667 51.333 -76 114.333 -76 189c0 96 43.333 168 130 216l269 149c-8 16 -16.667 27.167 -26 33.5s-20.333 9.5 -33 9.5c-27.333 4.66699 -105 7 -233 7l-11 86h212c120 0 181.667 -60.333 185 -181l-290 -163c-78.667 -44 -118 -98.667 -118 -164
c0 -47.333 19.833 -89.666 59.5 -126.999s80.834 -56 123.501 -56h257zM328.999 -109c0 -31.333 -20 -47.001 -60 -47.001c-39.333 0 -59 15.667 -59 47c0 22.667 12.333 39.667 37 51c6.66699 2 14 3 22 3c15.333 0 28.833 -5.16699 40.5 -15.5
s18.167 -23.166 19.5 -38.499zM407.999 -233.001c0 -32 -19.667 -48.333 -59 -49c-38 0 -57.333 16.333 -58 49c0 14 4.66699 27 14 39c5.33301 4 12 7.66699 20 11c6 2 14 3 24 3c8 0 14.667 -1 20 -3s12.333 -5.66699 21 -11c12 -12 18 -25 18 -39z" />
    <glyph glyph-name="d" unicode="&#x698;" horiz-adv-x="425" 
d="M313 517c0 -16 -6 -29.168 -18 -39.501s-25.667 -15.5 -41 -15.5c-14.667 0 -29 5.33301 -43 16c-8.66699 10 -14 19.333 -16 28c-0.666992 2.66699 -1 6.33398 -1 11.001c0 30.667 20 46 60 46c16.667 0 30 -3.66699 40 -11c12.667 -8 19 -19.667 19 -35zM398 391.999
c0 -15.333 -5.83398 -28 -17.501 -38s-25.5 -15.333 -41.5 -16s-30 4.33301 -42 15c-3.33301 4 -8 10 -14 18c-2.66699 8 -4 15 -4 21c0 31.333 20 47.333 60 48c38.667 0.666992 58.334 -15.333 59.001 -48zM226.999 391.999c0 -34.667 -19.332 -52.665 -57.999 -53.998
c-8 0 -14.833 0.666992 -20.5 2s-12.834 5.66602 -21.501 12.999c-5.33301 6 -9.33301 11.667 -12 17s-4.66699 12.666 -6 21.999c0 31.333 20 47.333 60 48c38.667 0.666992 58 -15.333 58 -48zM376 16.001c0 -62 -21.667 -117.333 -65 -166s-95.333 -73 -156 -73h-117
l-14 91h98c77.333 0 128.333 26.667 153 80c6.66699 14 10 29.333 10 46v282h91v-260z" />
    <glyph glyph-name="afii57505" unicode="&#x6a4;" horiz-adv-x="788" 
d="M752 159c1.33301 -56.667 -16.334 -99.999 -53.001 -129.999c-24 -19.333 -51.667 -29 -83 -29h-459c-32 0 -62.333 14.333 -91 43c-23.333 30 -35 63.333 -35 100v133h89v-120c0 -24 2.33301 -39.667 7 -47c8.66699 -13.333 27.667 -20 57 -20h422
c27.333 0 45 5.66699 53 17c0.666992 5.33301 3.66699 21.666 9 48.999c-82.667 0 -134.667 3.66699 -156 11c-47.333 16 -71 55.667 -71 119c0 44.667 13.5 79 40.5 103s63.167 36.333 108.5 37c40.667 0.666992 77.334 -15 110.001 -47s49.667 -71.667 51 -119z
M665 237.001c0 46.667 -17.667 77.999 -53 93.999c-7.33301 4.66699 -17 7 -29 7c-45.333 0 -68 -19 -68 -57c0 -21.333 10.667 -34.666 32 -39.999l37 -3zM642 649c0 -14.667 -6.49902 -27.334 -19.499 -38.001s-26.833 -16 -41.5 -16s-28 5.33301 -40 16
s-18 23.334 -18 38.001c-0.666992 31.333 18.666 47 57.999 47c40.667 0 61 -15.667 61 -47zM727.001 524c0 -14 -6.00098 -26.333 -18.001 -37c-9.33301 -8.66699 -23.666 -14 -42.999 -16c-16 0 -29 4.66699 -39 14c-6 5.33301 -10.667 11.333 -14 18
c-2.66699 4.66699 -4 11.667 -4 21c0 32.667 19 49 57 49c40.667 0 61 -16.333 61 -49zM556 524c0 -14.667 -5.16699 -26.667 -15.5 -36s-24.5 -15 -42.5 -17c-16.667 0 -30 4.66699 -40 14c-2 1.33301 -6.66699 7.33301 -14 18c-2.66699 6.66699 -4 13.667 -4 21
c0 32.667 19.333 49 58 49s58 -16.333 58 -49z" />
    <glyph glyph-name="uni06A9" unicode="&#x6a9;" horiz-adv-x="788" 
d="M751 120c0 -36.667 -13.999 -66.332 -41.999 -88.999c-25.333 -20.667 -57 -31 -95 -31h-453c-34.667 0 -64.334 14.5 -89.001 43.5s-37 62.167 -37 99.5v133h88v-120c0 -22.667 2.66699 -38.334 8 -47.001c8.66699 -13.333 28 -20 58 -20h423c30.667 0 46 13 46 39
c0 12 -5 23.333 -15 34l-230 239l-12 101l321 115l12 -88l-232 -89l206 -219c8 -8 18.333 -24.333 31 -49l7 -27z" />
    <glyph glyph-name="afii57509" unicode="&#x6af;" horiz-adv-x="788" 
d="M708 667l-307 -112l-5 35l311 110zM761 118c0.666992 -38.667 -12.665 -68.665 -39.998 -89.998c-24.667 -18.667 -57 -28 -97 -28h-453c-36.667 0 -67 14.667 -91 44s-36 62.333 -36 99v133h88v-120c0 -4 1 -14 3 -30c1.33301 -6 3.33301 -11.333 6 -16
s9.66699 -10.334 21 -17.001c12 -2.66699 24.667 -4 38 -4h428c7.33301 0 12.666 1 15.999 3c16.667 2.66699 26.667 14.667 30 36c0 4.66699 -0.333008 8 -1 10s-3.33398 5.66699 -8.00098 11l-243 252l-17 99l325 117l14 -88l-230 -87l204 -226
c28 -30.667 42.333 -63.334 43 -98.001z" />
    <glyph glyph-name="ordmasculine" unicode="&#x6c0;" horiz-adv-x="396" 
d="M370 153c0.666992 -44 -15.999 -82.001 -49.999 -114.001s-73.333 -48.333 -118 -49c-46.667 0 -86.334 16.333 -119.001 49s-49 72.334 -49 119.001c0 39.333 10.667 72.666 32 99.999l26 34l43 45l-26 28l60 60l161 -166c26.667 -27.333 40 -62.666 40 -105.999z
M283.001 152.999c0 16 -4.66699 30.333 -14 43l-70 76l-35 -36l-30 -35l-9 -19l-5 -29c0 -12 6.33301 -28.333 19 -49c17.333 -19.333 38.333 -29 63 -29c17.333 0 33.333 4.5 48 13.5s23.667 21.167 27 36.5c4 8 6 17.333 6 28zM260.001 546.999l-149 -73.999l-12 23l51 28
c-30 16.667 -45 38.334 -45 65.001c0 19.333 7.33301 36.666 22 51.999s31 23 49 23c16 -2.66699 30.333 -6.33398 43 -11.001l-10 -23c-10 1.33301 -20.333 4 -31 8c-10.667 0 -21.667 -4.66699 -33 -14c-8.66699 -16 -13 -27.667 -13 -35c0 -26 13.333 -39.667 40 -41
c5.33301 0 16 2.5 32 7.5s30.333 11.167 43 18.5z" />
    <glyph glyph-name="threequarters" unicode="&#x6cc;" horiz-adv-x="631" 
d="M600 5c0.666992 -37.333 -4.33398 -68.667 -15.001 -94c-12 -29.333 -28.667 -54.333 -50 -75c-41.333 -39.333 -91.333 -59 -150 -59h-138c-57.333 0 -106.333 22.5 -147 67.5s-61 98.5 -61 160.5v182h82v-193c0 -37.333 17 -71 51 -101c28.667 -20 59.667 -30 93 -30
h113c16.667 0 32 3 46 9c13.333 3.33301 28 11 44 23c30.667 24 46.334 53.333 47.001 88c0.666992 34 -27.333 54.333 -84 61h-120v150c0 46.667 15.333 83.667 46 111c28.667 31.333 65.334 47 110.001 47h106l3 -83h-106c-28.667 0 -50.334 -14 -65.001 -42
c-8 -24 -12 -57.333 -12 -100c81.333 0 135 -7 161 -21c30 -15.333 45.333 -49 46 -101z" />
    <glyph glyph-name="igrave" unicode="&#x6e4;" 
d="M309 681l-163.001 -0.000976562l-38 -3c-9.33301 -2 -16.666 -4.66699 -21.999 -8c-8.66699 -8 -16 -19.667 -22 -35l-59 23c16.667 34.667 31 56.334 43 65.001c7.33301 6.66699 17 11.667 29 15c14.667 4 31 6 49 6l183 1v-64z" />
    <glyph glyph-name="percent" unicode="&#x6f4;" horiz-adv-x="592" 
d="M526 228c-25.333 -12 -55.333 -23.334 -90 -34.001l-43 -7c-14 -2 -28.667 -3 -44 -3c-27.333 0 -52.666 2.66699 -75.999 8c-28.667 6.66699 -55.334 15.667 -80.001 27l1 -318h-86v264c0 41.333 -3 85.333 -9 132c-0.666992 4.66699 -2 12 -4 22
c0 2.66699 -0.666992 6.33398 -2 11.001c0 8.66699 -2.33301 22 -7 40l-20 77l83 28l23 -93l15 -79l45 -21c0 22 0.333008 38 1 48c2.66699 16 9.33398 38.667 20.001 68c4.66699 10 11.334 20.333 20.001 31c15.333 18 32.333 30.333 51 37c16.667 8.66699 38.667 13 66 13
c33.333 0 70 -9.33301 110 -28l-30 -75c-24.667 17.333 -49.334 26 -74.001 26c-29.333 0.666992 -52.666 -11.333 -69.999 -36c-2.66699 -2.66699 -6.33398 -8.5 -11.001 -17.5s-6.66699 -18.833 -6 -29.5l2 -22c9.33301 -24.667 30.666 -37 63.999 -37
c29.333 0 70.333 13 123 39z" />
    <glyph glyph-name="quotesingle" unicode="&#x6f5;" horiz-adv-x="592" 
d="M569 37c0 -45.333 -16.5 -82.3311 -49.5 -110.998s-72.5 -43.334 -118.5 -44.001c-44.667 -0.666992 -82.667 10.666 -114 33.999c-38.667 -22.667 -77.334 -34.667 -116.001 -36c-45.333 -0.666992 -81.666 16.333 -108.999 51c-25.333 31.333 -38 70.333 -38 117
c0 74 28.667 146.667 86 218l96 119l-34 23l56 68c227.333 -170 341 -316.333 341 -439zM476 55.002c0 23.333 -8 49.835 -24 79.502s-38.333 60.5 -67 92.5c-30.667 33.333 -68.334 68.333 -113.001 105c-104 -106.667 -156 -197.334 -156 -272.001
c0 -24.667 6.33301 -44.834 19 -60.501s30 -23.5 52 -23.5c24.667 0 43 9.66699 55 29c10 12 15.667 28.667 17 50l-5 33h87l5 -15l1 -19l-1 -33c0 -4.66699 -2.66699 -13.667 -8 -27c16.667 -10.667 35.667 -16 57 -16c40.667 0 66.334 16 77.001 48
c2.66699 7.33301 4 17 4 29z" />
    <glyph glyph-name="parenright" unicode="&#x6f6;" horiz-adv-x="592" 
d="M476 237c-23.333 -20.667 -46.333 -44.665 -69 -71.998l-74 -91c-8 -9.33301 -30 -41 -66 -95c-19.333 -28 -40 -61.333 -62 -100l-77 48c13.333 26.667 33 59.667 59 99c18 26.667 51.667 72 101 136c-55.333 0 -98.666 16 -129.999 48
c-27.333 29.333 -41 65.666 -41 108.999c0 55.333 23.333 101.333 70 138c24.667 15.333 52 23 82 23c36 0 74 -10.333 114 -31l-28 -79c-26 14.667 -50 22 -72 22c-26.667 0 -49.334 -12.333 -68.001 -37c-6.66699 -13.333 -10 -25.333 -10 -36s2.66699 -22 8 -34
c11.333 -25.333 34.333 -38 69 -38c18 0 37 3.66699 57 11c16.667 3.33301 38.667 13.666 66 30.999z" />
    <glyph glyph-name="Aogonek" unicode="&#x200c;" 
d="M15 554v-672h-30v672h30z" />
    <glyph glyph-name="aogonek" unicode="&#x200d;" 
d="M15 -118h-30v597l-58 -59l-21 21l73 73l-73 72l21 21l73 -73l73 73l21 -21l-73 -72l73 -73l-21 -21l-58 59v-597z" />
    <glyph glyph-name="Cacute" unicode="&#x200e;" 
d="M185 515l-93 -92l-22 21l59 56h-114v-618h-30v648h144l-59 56l22 21z" />
    <glyph glyph-name="cacute" unicode="&#x200f;" 
d="M15 -118h-30v618h-115l59 -56l-21 -21l-93 92l93 92l21 -21l-59 -56h145v-648z" />
    <glyph glyph-name="gcedilla" unicode="&#x2018;" horiz-adv-x="196" 
d="M136 524v-90h-83v71c0 38.667 4.66699 66.667 14 84c12 22.667 31 40 57 52l19 -30c-30 -12.667 -46 -41.667 -48 -87h41z" />
    <glyph glyph-name="Hcircumflex" unicode="&#x2019;" horiz-adv-x="196" 
d="M60 547v89h83v-71c0 -38 -4.66699 -65.333 -14 -82c-12 -23.333 -31 -41 -57 -53l-19 31c30 12 45.667 40.667 47 86h-40z" />
    <glyph glyph-name="gdot" unicode="&#x201c;" horiz-adv-x="293" 
d="M118 524v-90h-83v71c0 38.667 4.66699 66.667 14 84c12 22.667 31 40 57 52l19 -30c-30 -12.667 -45.667 -41.667 -47 -87h40zM251 524v-90h-83v71c0 38.667 4.66699 66.667 14 84c12 22.667 31 40 57 52l19 -30c-30 -12.667 -45.667 -41.667 -47 -87h40z" />
    <glyph glyph-name="Gcedilla" unicode="&#x201d;" horiz-adv-x="293" 
d="M42 547v89h83v-71c0 -38 -4.33301 -65.333 -13 -82c-12.667 -23.333 -32 -41 -58 -53l-19 31c30 12 45.667 40.667 47 86h-40zM175 547v89h83v-71c0 -38 -4.33301 -65.333 -13 -82c-12.667 -23.333 -32 -41 -58 -53l-19 31c30 12 45.667 40.667 47 86h-40z" />
    <glyph glyph-name="hcircumflex" unicode="&#x2022;" horiz-adv-x="300" 
d="M0 150c0 41.333 14.667 76.666 44 105.999s64.666 44 105.999 44s76.666 -14.667 105.999 -44s44 -64.666 44 -105.999s-14.667 -76.666 -44 -105.999s-64.666 -44 -105.999 -44s-76.666 14.667 -105.999 44s-44 64.666 -44 105.999z" />
    <glyph glyph-name="gbreve" unicode="&#x2039;" horiz-adv-x="293" 
d="M132 226l114 -195h-64l-135 195l135 197h64z" />
    <glyph glyph-name="Gdot" unicode="&#x203a;" horiz-adv-x="293" 
d="M163 228l-114 195h64l131 -193l-131 -199h-64z" />
    <glyph glyph-name="one" unicode="&#xfe00;" horiz-adv-x="230" 
d="M249 0c-72.667 0 -124.999 14.333 -156.999 43c-20 18 -30 48.667 -30 92v417h88v-379c0 -39.333 5.66699 -64 17 -74c7.33301 -6 34.666 -9.33301 81.999 -10v-89z" />
    <glyph glyph-name="three" unicode="&#xfe01;" horiz-adv-x="282" 
d="M356 616h-220.998l-52 -4c-14 -3.33301 -23.667 -7 -29 -11c-11.333 -11.333 -21.333 -27.333 -30 -48l-81 31l23 46c11.333 20 21.666 33.833 30.999 41.5s24.666 14.5 45.999 20.5c13.333 3.33301 34.666 6 63.999 8c20.667 0.666992 69.334 1 146.001 1h103v-85z
M296.002 0c-98 0 -157.332 24.333 -177.999 73c-6.66699 16.667 -10 37.334 -10 62.001v417h88v-379c0 -38.667 5 -63 15 -73c11.333 -6.66699 39.666 -10.334 84.999 -11.001v-89z" />
    <glyph glyph-name="five" unicode="&#xfe03;" horiz-adv-x="253" 
d="M105 634l-149.001 -75l-12 24l50 27c-30 16 -45 37.333 -45 64c0 30.667 15 54 45 70c8.66699 4.66699 17.667 7 27 7c10.667 -2.66699 24.334 -6.66699 41.001 -12l-10 -23c-3.33301 0.666992 -8 2 -14 4s-10.667 3.33301 -14 4c-12 0 -23.333 -4.66699 -34 -14
c-9.33301 -14.667 -14 -26.667 -14 -36c0 -26 13.333 -39.333 40 -40c10 0 20.667 2.66699 32 8c9.33301 1.33301 24 7.33301 44 18zM265.999 0c-74.667 0 -127.333 14.333 -158 43c-20 22.667 -30 53.334 -30 92.001v417h88v-379c0 -40 5.33301 -64.333 16 -73
c8.66699 -6.66699 36.667 -10.334 84 -11.001v-89z" />
    <glyph glyph-name="seven" unicode="&#xfe05;" horiz-adv-x="230" 
d="M249 0c-72.667 0 -124.999 14.333 -156.999 43c-20 18 -30 48.667 -30 92v417h88v-379c0 -39.333 5.66699 -64 17 -74c7.33301 -6 34.666 -9.33301 81.999 -10v-89zM231.001 -146l-149 -74.999l-12 24l50 27c-30 16.667 -45 38 -45 64c0 30.667 15 54 45 70
c8.66699 4.66699 17.667 7 27 7c10.667 -2 24.334 -5.66699 41.001 -11l-10 -23c-3.33301 0.666992 -8 2 -14 4s-10.667 3.33301 -14 4c-12 0 -23.333 -5 -34 -15c-9.33301 -14.667 -14 -26.667 -14 -36c0 -25.333 13.333 -38.333 40 -39
c10 -0.666992 20.667 1.66602 32 6.99902c9.33301 2 23.666 8 42.999 18z" />
    <glyph glyph-name="eight" unicode="&#xfe06;" horiz-adv-x="282" 
d="M183 0h-85v564h85v-564z" />
    <glyph glyph-name="nine" unicode="&#xfe07;" horiz-adv-x="230" 
d="M249 0c-72.667 0 -124.999 14.333 -156.999 43c-20 18 -30 48.667 -30 92v417h88v-379c0 -39.333 5.66699 -64 17 -74c7.33301 -6 34.666 -9.33301 81.999 -10v-89z" />
    <glyph glyph-name="semicolon" unicode="&#xfe08;" horiz-adv-x="230" 
d="M249 0c-72.667 0 -124.999 14.333 -156.999 43c-20 18 -30 48.667 -30 92v417h88v-379c0 -39.333 5.66699 -64 17 -74c7.33301 -6 34.666 -9.33301 81.999 -10v-89z" />
    <glyph glyph-name="equal" unicode="&#xfe09;" horiz-adv-x="839" 
d="M855 0l-56 1.99902l-38 6c-18.667 6.66699 -34 15.334 -46 26.001c-15.333 -10.667 -29.833 -19 -43.5 -25s-27.5 -9 -41.5 -9h-465c-34.667 0 -64.167 14.667 -88.5 44s-36.5 62.333 -36.5 99v133h88v-120c0 -10.667 0.666992 -20.667 2 -30
c4.66699 -24.667 26 -37 64 -37h410c24 0 39.333 3 46 9c12.667 10 19 29.333 19 58v120h89v-120c0 -21.333 5 -37 15 -47c10.667 -13.333 38 -20 82 -20v-89zM459 -164.001c0 -16.667 -6 -30.667 -18 -42c-14 -12 -29.333 -18 -46 -18c-18 0 -33 5.5 -45 16.5
s-18 25.5 -18 43.5c0 35.333 21 53.333 63 54c42.667 0.666992 64 -17.333 64 -54z" />
    <glyph glyph-name="greater" unicode="&#xfe0a;" horiz-adv-x="343" 
d="M362 0l-27.999 0.000976562c-19.333 0 -32 0.333008 -38 1c-10.667 0 -17.667 1.66699 -21 5c-18.667 2.66699 -36.667 12 -54 28c-15.333 -10.667 -29.833 -19 -43.5 -25s-27.5 -9 -41.5 -9h-145v89h117c29.333 0 48.333 6.66699 57 20
c1.33301 4 3.66602 10.333 6.99902 19c0.666992 13.333 1 22.666 1 27.999v120h91v-120c0 -24 7 -41.667 21 -53c10 -5.33301 21.333 -9 34 -11c10 -2 24.333 -3 43 -3v-89zM198.001 -158.999c0 -18.667 -6.66602 -33.334 -19.999 -44.001
c-5.33301 -5.33301 -11.5 -9.66602 -18.5 -12.999s-15.5 -5 -25.5 -5c-18.667 0 -33.834 5.66699 -45.501 17s-17.5 26.333 -17.5 45c0 34 21 51.333 63 52c42.667 0 64 -17.333 64 -52z" />
    <glyph glyph-name="question" unicode="&#xfe0b;" horiz-adv-x="287" 
d="M255 143c0 -18 -2.99902 -35.167 -8.99902 -51.5s-16 -32.5 -30 -48.5c-24.667 -28.667 -54.334 -43 -89.001 -43h-145v89h117c30 0 49.333 6.66699 58 20c1.33301 3.33301 3 9.33301 5 18c2 6 3 15.667 3 29v120h90v-133zM156.001 -165
c0 -16.667 -6.33301 -31.333 -19 -44c-15.333 -10.667 -30.333 -16 -45 -16c-19.333 0 -35 5.33301 -47 16c-11.333 13.333 -17 28 -17 44c0 35.333 21.333 53.333 64 54s64 -17.333 64 -54z" />
    <glyph glyph-name="A" unicode="&#xfe0c;" horiz-adv-x="839" 
d="M855 0l-56 1.99902l-38 6c-18.667 6.66699 -34 15.334 -46 26.001c-15.333 -10.667 -29.833 -19 -43.5 -25s-27.5 -9 -41.5 -9h-465c-34.667 0 -64.167 14.667 -88.5 44s-36.5 62.333 -36.5 99v133h88v-120c0 -10.667 0.666992 -20.667 2 -30
c4.66699 -24.667 26 -37 64 -37h410c24 0 39.333 3 46 9c12.667 10 19 29.333 19 58v120h89v-120c0 -21.333 5 -37 15 -47c10.667 -13.333 38 -20 82 -20v-89zM558 -154.001c0 -30.667 -20.332 -45.999 -60.999 -45.999c-37.333 0 -56 15.333 -56 46
c0 15.333 5.66699 28.333 17 39c8.66699 10.667 21.667 16 39 16c16 0 30.333 -5.33301 43 -16c3.33301 -4 7.16602 -9.83301 11.499 -17.5s6.5 -14.834 6.5 -21.501zM388.001 -154c0 -30.667 -19.667 -46.001 -59 -46.001c-37.333 0 -56.333 15.333 -57 46
c-0.666992 16 4.66602 29.167 15.999 39.5s25 15.5 41 15.5s29.667 -5.33301 41 -16c6.66699 -7.33301 11.334 -13.666 14.001 -18.999s4 -12 4 -20zM469.001 -277.001c0 -32 -19.666 -48.332 -58.999 -48.999c-38.667 0 -58 16.333 -58 49
c0 7.33301 1.33301 13.666 4 18.999c1.33301 2.66699 5.66602 9 12.999 19c4.66699 4.66699 10.667 8.33398 18 11.001c3.33301 1.33301 11 2.66602 23 3.99902c16 0 29.667 -5 41 -15c3.33301 -3.33301 7.33301 -10 12 -20c4 -5.33301 6 -11.333 6 -18z" />
    <glyph glyph-name="B" unicode="&#xfe0d;" horiz-adv-x="362" 
d="M380 0l-53.002 1l-27 4l-21 11l-24 18c-11.333 -8.66699 -25.166 -16.5 -41.499 -23.5s-30.166 -10.5 -41.499 -10.5h-190v89h162c29.333 0 48.666 6.66699 57.999 20l7 18v12.5v16.5v120h88v-120c0 -26.667 5 -45 15 -55c12.667 -8 35.334 -12 68.001 -12v-89z
M318.998 -154c0 -31.333 -20 -47 -60 -47c-39.333 0 -59 15.667 -59 47c0 15.333 5.83301 28.333 17.5 39s25.5 16 41.5 16c15.333 0 29 -5.33301 41 -16c3.33301 -4 7.33301 -10 12 -18s7 -15 7 -21zM148.998 -154c0 -31.333 -19.667 -47 -59 -47s-59 15.667 -59 47
c0 22 12 39 36 51c6 2.66699 13.667 4 23 4c16 0 29.667 -5.33301 41 -16c3.33301 -3.33301 7.33301 -9.66602 12 -18.999c4 -6.66699 6 -13.334 6 -20.001zM229.998 -277c0 -32.667 -19.333 -49.001 -58 -49.001c-40 0 -60.333 16.333 -61 49
c-0.666992 15.333 4.33301 27.833 15 37.5s26 14.834 46 15.501c14.667 0 27.667 -5 39 -15c4 -4 8.66699 -10.667 14 -20c3.33301 -6 5 -12 5 -18z" />
    <glyph glyph-name="C" unicode="&#xfe0e;" horiz-adv-x="343" 
d="M304 143c0 -37.333 -11.333 -70 -34 -98c-24.667 -30 -55.334 -45 -92.001 -45h-188v89h160c30 0 49.667 6.66699 59 20c0.666992 3.33301 2.33398 9.33301 5.00098 18c0 5.33301 0.666992 15 2 29v120h88v-133zM319 -154c0 -31.333 -20 -47 -60 -47
c-39.333 0 -59 15.667 -59 47c0 15.333 5.83301 28.333 17.5 39s25.5 16 41.5 16c15.333 0 29 -5.33301 41 -16c3.33301 -4 7.33301 -10 12 -18s7 -15 7 -21zM149 -154c0 -31.333 -19.667 -47 -59 -47s-59 15.667 -59 47c0 22 12 39 36 51c6 2.66699 13.667 4 23 4
c16 0 29.667 -5.33301 41 -16c3.33301 -3.33301 7.33301 -9.66602 12 -18.999c4 -6.66699 6 -13.334 6 -20.001zM230 -277c0 -32.667 -19.333 -49.001 -58 -49.001c-40 0 -60.333 16.333 -61 49c-0.666992 15.333 4.33301 27.833 15 37.5s26 14.834 46 15.501
c14.667 0 27.667 -5 39 -15c4 -4 8.66699 -10.667 14 -20c3.33301 -6 5 -12 5 -18z" />
    <glyph glyph-name="E" unicode="&#xfe0f;" horiz-adv-x="839" 
d="M545 424c0 -15.333 -5.83301 -28 -17.5 -38s-25.167 -15 -40.5 -15c-16 0 -30.333 5 -43 15c-9.33301 7.33301 -15.333 20 -18 38c0 32.667 20.333 49 61 49c38.667 0 58 -16.333 58 -49zM376 424c0 -14.667 -5.83203 -27.167 -17.499 -37.5s-25.834 -15.5 -42.501 -15.5
c-15.333 0 -28.833 5 -40.5 15s-17.5 22.667 -17.5 38c0 32.667 19.333 49 58 49c40 0 60 -16.333 60 -49zM855.001 0l-56 1.99902l-38 6c-18.667 6.66699 -34 15.334 -46 26.001c-15.333 -10.667 -29.833 -19 -43.5 -25s-27.5 -9 -41.5 -9h-465
c-34.667 0 -64.167 14.667 -88.5 44s-36.5 62.333 -36.5 99v133h88v-120c0 -10.667 0.666992 -20.667 2 -30c4.66699 -24.667 26 -37 64 -37h410c24 0 39.333 3 46 9c12.667 10 19 29.333 19 58v120h89v-120c0 -21.333 5 -37 15 -47c10.667 -13.333 38 -20 82 -20v-89z" />
    <glyph glyph-name="F" unicode="&#xfe10;" horiz-adv-x="362" 
d="M311 423c0 -14.667 -5.83301 -27.168 -17.5 -37.501s-25.167 -15.5 -40.5 -15.5c-14 0 -28.333 5 -43 15c-10.667 12.667 -16 25.334 -16 38.001c0 32 19.667 48 59 48c38.667 0 58 -16 58 -48zM143 422.999c0 -15.333 -6 -28 -18 -38s-25.667 -15 -41 -15
c-16 0 -29.667 5 -41 15s-17 22.667 -17 38c0 32 19.333 48 58 48c39.333 0 59 -16 59 -48zM380 -0.000976562l-53.002 1l-27 4l-21 11l-24 18c-11.333 -8.66699 -25.166 -16.5 -41.499 -23.5s-30.166 -10.5 -41.499 -10.5h-190v89h162c29.333 0 48.666 6.66699 57.999 20
l7 18v12.5v16.5v120h88v-120c0 -26.667 5 -45 15 -55c12.667 -8 35.334 -12 68.001 -12v-89z" />
    <glyph glyph-name="G" unicode="&#xfe11;" horiz-adv-x="333" 
d="M297 420c0 -31.333 -19.333 -49.333 -58 -54c-12 0 -25.667 4.66699 -41 14c-12 12 -18 25.333 -18 40c0 32 19.667 48 59 48c38.667 0 58 -16 58 -48zM128 420c0 -16 -5.33203 -28.999 -15.999 -38.999s-24.334 -15 -41.001 -15c-14.667 0 -29 4.66699 -43 14
c-10 13.333 -15.667 26.666 -17 39.999c0 32 20 48 60 48c38 0 57 -16 57 -48zM297.001 143.001c0 -36 -12.333 -68.833 -37 -98.5s-54 -44.5 -88 -44.5h-190v89h161c39.333 0 60.333 12.667 63 38c2 6 3 15.667 3 29v120h88v-133z" />
    <glyph glyph-name="I" unicode="&#xfe12;" horiz-adv-x="839" 
d="M457 517c0 -14.667 -6.49902 -27.334 -19.499 -38.001s-26.833 -16 -41.5 -16c-14 0 -27.167 5.33301 -39.5 16s-18.5 23.334 -18.5 38.001c-0.666992 31.333 18.666 47 57.999 47c40.667 0 61 -15.667 61 -47zM542.001 392c0 -14 -6 -26.333 -18 -37
c-8.66699 -8.66699 -23 -14 -43 -16c-16 0 -29 4.66699 -39 14c-6 5.33301 -10.333 11.333 -13 18c-3.33301 4.66699 -5 11.667 -5 21c0 32.667 19 49 57 49c40.667 0 61 -16.333 61 -49zM371.001 392c0 -14.667 -5 -26.667 -15 -36s-24.333 -15 -43 -17
c-16.667 0 -30 4.66699 -40 14c-2 1.33301 -6.66699 7.33301 -14 18c-2.66699 6.66699 -4 13.667 -4 21c0 32.667 19.333 49 58 49s58 -16.333 58 -49zM855.001 0l-56 1.99902l-38 6c-18.667 6.66699 -34 15.334 -46 26.001c-15.333 -10.667 -29.833 -19 -43.5 -25
s-27.5 -9 -41.5 -9h-465c-34.667 0 -64.167 14.667 -88.5 44s-36.5 62.333 -36.5 99v133h88v-120c0 -10.667 0.666992 -20.667 2 -30c4.66699 -24.667 26 -37 64 -37h410c24 0 39.333 3 46 9c12.667 10 19 29.333 19 58v120h89v-120c0 -21.333 5 -37 15 -47
c10.667 -13.333 38 -20 82 -20v-89z" />
    <glyph glyph-name="J" unicode="&#xfe13;" horiz-adv-x="362" 
d="M220 517c0 -14.667 -6.16699 -27.5 -18.5 -38.5s-26.5 -16.5 -42.5 -16.5c-14 0 -27.333 5.5 -40 16.5s-19 23.833 -19 38.5c0 31.333 19.667 47 59 47c40.667 0 61 -15.667 61 -47zM305 392c0.666992 -14.667 -4.83301 -27.167 -16.5 -37.5
s-25.834 -15.833 -42.501 -16.5c-16 -0.666992 -30 4.33301 -42 15c-3.33301 4 -7.33301 10 -12 18c-3.33301 5.33301 -5 12.333 -5 21c0 32.667 19.667 49 59 49c38.667 0 58.334 -16.333 59.001 -49zM136 392c0 -16 -5.83301 -28.833 -17.5 -38.5
s-25.5 -14.834 -41.5 -15.501c-8 -0.666992 -15.333 0.333008 -22 3c-4 0.666992 -10.667 4.66699 -20 12c-4 4 -7.83301 10.333 -11.5 19s-5.5 15.334 -5.5 20.001c0 32.667 19.667 49 59 49s59 -16.333 59 -49zM380 0l-53.002 1l-27 4l-21 11l-24 18
c-11.333 -8.66699 -25.166 -16.5 -41.499 -23.5s-30.166 -10.5 -41.499 -10.5h-190v89h162c29.333 0 48.666 6.66699 57.999 20l7 18v12.5v16.5v120h88v-120c0 -26.667 5 -45 15 -55c12.667 -8 35.334 -12 68.001 -12v-89z" />
    <glyph glyph-name="K" unicode="&#xfe14;" horiz-adv-x="333" 
d="M220 517c0 -14.667 -6.16699 -27.5 -18.5 -38.5s-26.5 -16.5 -42.5 -16.5c-14 0 -27.333 5.5 -40 16.5s-19 23.833 -19 38.5c0 31.333 19.667 47 59 47c40.667 0 61 -15.667 61 -47zM305 392c0.666992 -14.667 -4.83301 -27.167 -16.5 -37.5
s-25.834 -15.833 -42.501 -16.5c-16 -0.666992 -30 4.33301 -42 15c-3.33301 4 -7.33301 10 -12 18c-3.33301 5.33301 -5 12.333 -5 21c0 32.667 19.667 49 59 49c38.667 0 58.334 -16.333 59.001 -49zM136 392c0 -16 -5.83301 -28.833 -17.5 -38.5
s-25.5 -14.834 -41.5 -15.501c-8 -0.666992 -15.333 0.333008 -22 3c-4 0.666992 -10.667 4.66699 -20 12c-4 4 -7.83301 10.333 -11.5 19s-5.5 15.334 -5.5 20.001c0 32.667 19.667 49 59 49s59 -16.333 59 -49zM297 143c0 -36 -12.333 -68.833 -37 -98.5
s-54 -44.5 -88 -44.5h-190v89h161c39.333 0 60.333 12.667 63 38c2 6 3 15.667 3 29v120h88v-133z" />
    <glyph glyph-name="M" unicode="&#xfe15;" horiz-adv-x="541" 
d="M562 0c-44.667 0 -80.668 6.00195 -108.001 18.002c-21.333 13.333 -36 28 -44 44l-12 42l-172 -96c-78.667 -44 -118 -98.667 -118 -164c0 -46.667 19 -88.834 57 -126.501s80.333 -56.5 127 -56.5h256l9 -86h-243c-85.333 0 -156.666 29 -213.999 87
c-50 51.333 -75 114.333 -75 189c0 96 43 168 129 216l270 149c-16 24.667 -36.333 39 -61 43c-32 4.66699 -109.667 7 -233 7l-10 86h212c119.333 0 181 -60.333 185 -181l-81 -46c6 -14.667 20 -25.334 42 -32.001c10 -2.66699 29.333 -4 58 -4h26v-89zM402.999 -158.998
c0 -18 -6 -32.999 -18 -44.999c-18 -12 -33.333 -18 -46 -18c-28 0 -48 12.667 -60 38c-2.66699 5.33301 -4 13.666 -4 24.999c0 34 21.333 51 64 51s64 -17 64 -51z" />
    <glyph glyph-name="N" unicode="&#xfe16;" horiz-adv-x="506" 
d="M518 0c-41.333 0 -75.667 6 -103 18c-15.333 6 -27 19 -35 39l-10 47c-82.667 -48 -142 -77.667 -178 -89c-3.33301 -1.33301 -8.83301 -2.83301 -16.5 -4.5s-14.167 -3.16699 -19.5 -4.5l-46 -2l-131 -4v89c75.333 0 123 1.33301 143 4c30 4.66699 63 14 99 28l71 37
c22 13.333 55.333 32.333 100 57c-12.667 25.333 -29.167 40 -49.5 44s-48.5 6 -84.5 6l-155 1l-12 86h218c118 0 177.667 -60.333 179 -181l-81 -45c0 -24.667 37 -37 111 -37v-89zM292.999 -164c0 -16 -6 -31 -18 -45c-15.333 -10.667 -30.333 -16 -45 -16
c-43.333 0 -65 20.333 -65 61c0 35.333 21.667 53 65 53c42 0 63 -17.667 63 -53z" />
    <glyph glyph-name="O" unicode="&#xfe17;" horiz-adv-x="506" 
d="M488 171l-202 -116c-40.667 -22.667 -82 -38 -124 -46c-31.333 -6 -92.333 -9 -183 -9v89c75.333 0 123 1.33301 143 4c30 4.66699 63 14 99 28l71 37c22 13.333 55.333 32.333 100 57c-12.667 25.333 -29.167 40 -49.5 44s-48.5 6 -84.5 6l-155 1l-12 86h218
c118 0 177.667 -60.333 179 -181zM172 -158c0 -16 -6.33594 -30.667 -19.0029 -44c-5.33301 -4 -12.666 -8.33301 -21.999 -13c-4.66699 -3.33301 -12.667 -5 -24 -5c-18 0 -33.333 6 -46 18c-6 6 -10.167 12 -12.5 18s-4.16602 14.667 -5.49902 26
c0 34.667 21.333 52.334 64 53.001c42.667 1.33301 64.334 -16.334 65.001 -53.001z" />
    <glyph glyph-name="Q" unicode="&#xfe18;" horiz-adv-x="541" 
d="M495 -109c0 -31.333 -19.667 -47.001 -59 -47.001s-59 15.667 -59 47c0 21.333 12.333 38.333 37 51c6.66699 2 14 3 22 3c15.333 0 29 -5.16699 41 -15.5s18 -23.166 18 -38.499zM568 -0.000976562c-45.333 0 -81.667 6 -109 18
c-20.667 12.667 -35.334 27.334 -44.001 44.001l-11 42l-173 -96c-78 -44 -117 -98.667 -117 -164c0 -45.333 19.167 -87.166 57.5 -125.499s80.166 -57.5 125.499 -57.5h257l7 -86h-241c-85.333 0 -156.666 29 -213.999 87c-51.333 52.667 -77 115.667 -77 189
c0 96 43 168 129 216l271 149c-16 24.667 -36 39 -60 43c-32 4.66699 -109.667 7 -233 7l-11 86h213c90.667 0 148 -34.667 172 -104c8.66699 -25.333 13 -51 13 -77l-81 -46c5.33301 -14.667 19.333 -25.334 42 -32.001
c2.66699 -0.666992 9.33398 -1.33398 20.001 -2.00098c13.333 -1.33301 26 -2 38 -2h26v-89zM325.999 -109.001c0 -31.333 -20 -47.001 -60 -47.001c-38 0 -57 15.667 -57 47c0 22 11.667 39 35 51c6 2 13.333 3 22 3c14.667 0 28.167 -5.16699 40.5 -15.5
s18.833 -23.166 19.5 -38.499zM404.999 -233.002c0 -32 -19.3311 -48.334 -57.998 -49.001c-40 0 -60 16.333 -60 49c0 14 5.33301 27 16 39c3.33301 2.66699 9.66602 6.33398 18.999 11.001c5.33301 2 13.666 3 24.999 3c6 0 13 -1 21 -3
c4.66699 -2 10.667 -5.66699 18 -11c12.667 -12.667 19 -25.667 19 -39z" />
    <glyph glyph-name="R" unicode="&#xfe19;" horiz-adv-x="506" 
d="M518 0c-41.333 0 -75.667 6 -103 18c-15.333 6 -27 19 -35 39l-10 47c-82.667 -48 -142 -77.667 -178 -89c-3.33301 -1.33301 -8.83301 -2.83301 -16.5 -4.5s-14.167 -3.16699 -19.5 -4.5l-46 -2l-131 -4v89c75.333 0 123 1.33301 143 4c30 4.66699 63 14 99 28l71 37
c22 13.333 55.333 32.333 100 57c-12.667 25.333 -29.167 40 -49.5 44s-48.5 6 -84.5 6l-155 1l-12 86h218c118 0 177.667 -60.333 179 -181l-81 -45c0 -24.667 37 -37 111 -37v-89zM389.999 -154c0 -31.333 -20 -47.001 -60 -47.001c-38.667 0 -58 15.667 -58 47
c0 16 5.33301 29 16 39c2.66699 2.66699 9.66699 6.33398 21 11.001c5.33301 2.66699 12.333 4 21 4c16 0 29.667 -5 41 -15c4 -4 8.66699 -10.333 14 -19c3.33301 -6 5 -12.667 5 -20zM220.999 -154.001c0 -31.333 -20 -47 -60 -47c-38.667 0 -58 15.667 -58 47
c0 15.333 5.66699 28.333 17 39c4 3.33301 10.333 7 19 11c5.33301 2.66699 12.666 4 21.999 4c14.667 0 28.667 -5 42 -15c6.66699 -7.33301 11.334 -13.333 14.001 -18s4 -11.667 4 -21zM301.999 -277.001c0 -32.667 -20 -49 -60 -49c-39.333 0 -59 16.333 -59 49
c0 18.667 7.66699 33 23 43c9.33301 5.33301 21.333 8.33301 36 9c16 0 29.667 -4.66699 41 -14c3.33301 -4 8 -10.667 14 -20c3.33301 -7.33301 5 -13.333 5 -18z" />
    </font>
</defs>
</svg>
