<?xml version="1.0" standalone="no"?>
<!DOCTYPE svg PUBLIC "-//W3C//DTD SVG 1.1//EN" "http://www.w3.org/Graphics/SVG/1.1/DTD/svg11.dtd" >
<svg xmlns="http://www.w3.org/2000/svg">
<metadata>Generated by IcoMoon</metadata>
<defs>
<font id="ibglobal" horiz-adv-x="512">
<font-face units-per-em="512" ascent="480" descent="-32" />
<missing-glyph horiz-adv-x="512" />
<glyph unicode="&#x20;" d="" horiz-adv-x="256" />
<glyph unicode="&#xe600;" d="M423.039 88.086c-55.476-7.976-116.772-12.401-181.218-12.401-64.448 0-125.742 4.426-181.22 12.401-10.633 41.608-16.534 87.579-16.534 135.914 0 48.334 5.901 94.307 16.534 135.913 55.479 7.976 116.774 12.402 181.22 12.402 64.445 0 125.741-4.426 181.218-12.402 10.634-41.607 16.535-87.579 16.535-135.913 0-48.334-5.902-94.307-16.535-135.914zM192.382 298.158v-148.316l123.596 74.158-123.596 74.158z" horiz-adv-x="496" />
<glyph unicode="&#xe601;" d="M464 416h-416c-26.4 0-48-21.6-48-48v-320c0-26.4 21.6-48 48-48h416c26.4 0 48 21.6 48 48v320c0 26.4-21.6 48-48 48zM199.37 204.814l-135.37-105.446v250.821l135.37-145.375zM88.19 352h335.62l-167.81-126-167.81 126zM204.644 199.151l51.356-55.151 51.355 55.151 105.277-135.151h-313.264l105.276 135.151zM312.63 204.814l135.37 145.375v-250.821l-135.37 105.446z" />
<glyph unicode="&#xe602;" d="M487.655 191.031c1.406 10.4 2.215 20.973 2.215 31.736 0 129.155-105.271 233.872-235.103 233.872-12.904 0-25.555-1.060-37.866-3.080-22.072 14.384-48.342 22.767-76.612 22.767-77.523 0-140.289-62.808-140.289-140.306 0-28.198 8.299-54.394 22.59-76.389-1.925-12.017-2.909-24.323-2.909-36.859 0-129.176 105.217-233.882 235.085-233.882 14.657 0 28.927 1.427 42.796 3.933 21.55-13.369 46.934-21.148 74.146-21.148 77.502-0.001 140.292 62.823 140.292 140.313-0.003 29.293-8.96 56.528-24.345 79.043zM276.74 50.404c-74.705-3.892-109.664 12.637-141.689 42.691-35.765 33.567-21.398 71.854 7.74 73.801 29.122 1.944 46.607-33.013 62.15-42.736 15.524-9.688 74.594-31.76 105.794 3.908 33.976 38.828-22.594 58.92-64.059 65.002-59.203 8.766-133.95 40.792-128.135 103.907 5.816 63.074 53.582 95.414 103.85 99.976 64.077 5.817 105.791-9.707 138.785-37.86 38.15-32.529 17.508-68.894-6.799-71.82-24.212-2.909-51.404 53.504-104.791 54.352-55.027 0.864-92.217-57.261-24.286-73.784 67.966-16.505 140.75-23.286 166.961-85.417 26.229-62.137-40.754-128.125-115.521-132.020z" />
<glyph unicode="&#xe603;" d="M426.688 480h-341.345c-46.938 0-85.343-38.408-85.343-85.346v-341.312c0-46.965 38.405-85.342 85.343-85.342h341.345c46.937 0 85.312 38.376 85.312 85.342v341.312c0 46.938-38.375 85.346-85.312 85.346zM480 53.342c0-14.167-5.57-27.541-15.685-37.658-10.111-10.114-23.474-15.684-37.627-15.684h-170.688v224h-224v170.654c0 14.154 5.575 27.525 15.698 37.648 10.122 10.123 23.492 15.698 37.645 15.698h170.657v-224h224v-170.658z" />
<glyph unicode="&#xe604;" d="M247.778 211.512h-185.453v149.103c59.764 0 121.993-0.616 181.141 0 5.545 0 4.313 0 4.313-1.233l-0.616-147.87zM299.533 169c1.233 1.849 0.616 0.616 1.849 1.849s0.616 0.616 1.849 2.464c1.849 2.464 2.464 1.849 4.313 3.697l1.849 2.464c1.233 1.849 1.233 0 1.233 3.080v107.206c0 44.361 0 88.106 0 132.467h-60.996v59.764h-63.461v-59.764h-60.996v59.764h-62.845v-59.764h-62.228v-241.521c4.929-3.080 10.474-11.091 15.403-14.787l15.403-15.403h93.035v-180.524h62.845c0.616 1.849 0.616 19.1 0.616 22.18 0 7.394 0 14.787 0 22.796v123.841c0 2.464-0.616 9.858 0.616 11.091h93.035l19.1 19.1zM299.533 169v-0.616l0.616 0.616z" horiz-adv-x="311" />
<glyph unicode="&#xe605;" d="M137.407 345.289c0 1.456 0.546 2.002 2.002 2.002h332.507c1.456 0 2.002-0.546 2.002-2.002v-66.975h-336.51v66.975zM14.014 462.859l-5.278-5.278c-1.092-1.638-1.456-1.456-2.73-2.73-1.274-1.274-0.91-1.456-2.73-2.73-4.004-6.006-3.276 1.638-3.276-17.836 0-7.28 0-14.559 0-21.839h70.433v-282.822c0-5.096 1.092-4.55 3.822-7.462 9.464-9.282 18.382-19.474 28.573-27.846 2.366-1.82 3.276-4.732 6.916-5.096l-18.927-18.745c-0.182-0.182-0.182-0.182-0.364-0.364l-12.558-12.558c-0.182 0-0.182-0.182-0.364-0.364-4.732-4.186-6.916-5.278-6.916-10.374 0-7.462-0.728-28.209 0-34.579 0.364-3.64 6.916-8.554 9.464-11.102l17.108-16.743c1.456-1.274 2.002-2.002 3.276-3.276l6.552-6.734c4.55-4.368 2.548-4.186 10.556-4.004h27.3c8.372 0 6.552-0.91 11.102 3.458l1.092 0.91c0.182 0.182 0.182 0.182 0.364 0.364l32.76 32.214c4.186 4.004 3.094 3.094 3.094 10.738 0 9.1 0 18.2 0 27.3 0.182 7.462-3.094 8.008-11.102 16.015l-20.748 20.384c-2.002 2.002-5.642 4.55-6.552 7.28h311.213c-1.274-2.002-1.82-2.184-3.64-3.64-4.186-3.276-7.462-7.644-11.466-11.102-0.546-0.546-1.274-1.092-1.82-1.638l-11.284-11.284c-0.91-0.91-1.092-1.274-1.82-2.002l-7.644-6.916c-2.548-2.912-1.456-9.646-1.456-13.832 0-5.824-1.456-26.753 1.638-30.212 0.546-0.728 0.546-0.546 0.91-1.092l13.467-13.103c7.826-6.552 15.106-14.923 22.204-22.204 3.094-3.094 8.918-1.82 13.467-1.82 10.192 0 20.384 0 30.575 0 1.092 3.276 6.916 7.28 9.464 9.828 8.372 8.372 21.658 23.478 30.394 29.301v36.581c0.182 8.008-3.094 8.008-8.736 13.832-3.64 3.64-7.098 7.644-11.102 10.92-5.642 4.55-15.106 13.103-18.745 18.563h37.855c0 5.642 0.91 61.514-0.364 64.063-0.546 1.274-5.642 0.728-7.098 0.546-16.197-0.728-41.313 0.546-59.149 0h-74.255c-5.278-0.182-10.010 0.364-14.741 0h-74.255c-20.748-0.91-52.597 0.728-74.072 0-19.655-0.728-39.675 0.728-59.512 0-5.642-0.182-10.374 0.364-15.106 0l-22.022-0.182c-2.912-0.182-2.548 0.182-4.004 1.82-1.092 1.274-1.82 2.366-2.912 3.64-3.458 4.004-3.094 2.366-3.094 9.464v39.857h365.812c17.471 0 9.464 0.364 21.476 9.1l18.199 18.2c9.282 9.646 6.006 4.004 6.006 23.113 0 51.323 0 102.645 0 153.969h-403.485c0 12.921 0.728 55.145 0 66.428-0.182 3.822-1.82 2.184-6.916 2.184h-103.555c-2.548 0-2.366-0.546-4.914-3.276l-5.278-5.278c-1.092-1.274-1.638-1.456-2.73-2.548l-8.008-8.008zM14.014 462.677v0.728l-0.728-0.546zM8.736 457.399v0.728l-0.91-0.728zM3.276 452.121v0.546l-0.728-0.546z" horiz-adv-x="550" />
<glyph unicode="&#xe606;" d="M-0.011 379.436v-374.873c5.617-3.777 9.878-10.362 15.107-14.72 5.035-4.164 16.947-15.010 20.143-19.852h378.94l34.476 34.766c0.872 1.84 0.193 341.85 0.193 374.679-4.745 3.196-21.596 21.305-27.019 26.632l-7.070 7.070c-1.55 1.356-0.387 1.647-2.615 1.647h-103.911c-1.55 0-2.034-0.484-2.034-2.034v-63.141h78.732c-1.743-4.551-0.678-68.37-0.678-78.732v-237.649h-314.347c-2.712 0-3.196 0.969-5.423 0v317.156l67.305-0.291c0.387 0 8.619-0.291 9.588 0.774 1.647 1.937-0.194-0.387-0.194 1.452v59.751c0 1.647 1.549 2.712-1.356 2.712h-102.555c-2.034 0-1.162-0.387-2.614-1.646l-25.47-24.695c-2.809-2.808-6.391-6.972-9.297-9.006zM192.8 211.029h63.141v270.962h-63.141z" horiz-adv-x="449" />
<glyph unicode="&#xe607;" d="M246.879 405.846h274.016v-228.357h-274.017c-1.993 5.158-0.821 99.994-0.821 113.768 0 14.009-1.173 109.431 0.821 114.589zM78.6 405.846c12.719 0 80.769 1.055 87.334-0.821-1.993-3.106-0.821-87.51-0.821-90.558h-86.513v91.32zM0.059 280.823c3.634-0.996 1.583-1.173 5.216-4.396l23.68-23.621c1.582-1.465 1.407-0.351 4.161-3.048 3.4-3.399 7.268-8.147 11.020-10.609 35.226 0 70.511 0 105.738 0 16.060 0 12.016 6.096 12.016-40.853 0-17.877 0-35.813 0-53.69 2.227-0.82 3.576-2.755 5.216-4.396l8.792-8.851c0.996-0.997 0.176-0.293 1.173-1.231l5.275-4.279c0.293-0.293 1.231-1.055 1.758-1.466l16.177-16.705c0.879-0.879 1.758-1.231 3.107-2.521 1.231-1.173 1.406-2.228 3.399-2.228 116.172 0 232.343 0 348.572 0 5.803 8.616 14.654 13.305 19.167 18.463l19.284 19.166c1.582 1.466 4.807 4.337 4.807 6.389v334.916h-556.063c-2.227-3.283-11.313-11.137-15.416-15.063l-17.877-16.588c-0.117-0.117-0.293-0.293-0.411-0.41-10.258-9.554-8.792-6.506-8.792-16.881v-152.219zM158.725 14.075c0-3.341 28.486-28.779 33.058-33.468 2.052-2.11 9.203-10.609 11.84-10.609h350.975c2.99 0 21.687 20.28 24.617 23.445 2.52 2.637 19.401 16.236 19.401 19.812v32.824h-439.892v-32.062z" horiz-adv-x="599" />
<glyph unicode="&#xe608;" d="M161.583 67.775h60.194v-58.052h-60.194v58.052zM66.415 417.515h247.673v-317.621h-247.673v317.621zM0.036 448.207v-444.907c8.803-5.948 21.174-21.413 26.885-25.695 4.282-3.331 6.899-8.089 9.516-8.089h309.293c3.807 5.71 34.974 33.308 34.974 35.688v442.052l-20.223 19.51c0 0-0.238 0.238-0.238 0.476l-1.428 1.428c-0.238 0.238-0.952 1.19-0.952 1.19s-0.238 0.238-0.238 0.476l-0.714 0.714c-2.142 1.904-9.993 10.944-12.134 10.944h-309.293l-17.368-16.892c-5.234-5.234-11.658-12.609-17.606-16.654z" horiz-adv-x="381" />
<glyph unicode="&#xe609;" d="M68.101 269.033h147.405v145.341h87.559v-136.202c0-4.717-0.589-5.307 0.885-8.55 0-0.295 0.295-0.589 0.295-0.589h145.341v-86.084h-137.381c-12.087 0-7.37 0.589-7.96-1.474-1.769-0.589-1.474 2.948-1.474-7.37v-136.792h-87.558v145.341h-147.405v86.084zM148.289 336.544c-2.948-1.179-109.079 0.59-111.143-0.589-0.295 0-2.063-1.769-2.358-2.064-0.59-0.589-0.295-0.295-0.885-1.179-5.602-6.191-17.983-17.688-24.764-24.469-1.769-1.769-8.845-7.665-8.845-9.729v-144.751c0-2.358 7.075-7.665 8.845-10.024l19.163-18.868c1.769-1.769 7.96-9.139 10.319-9.139h109.964v-108.195c0-2.063 15.625-16.804 18.278-19.163 2.358-2.358 17.099-18.278 19.162-18.278h147.404c2.063 0 6.191 5.307 7.96 6.781l14.74 14.74c0.589 0.589 0.885 0.885 1.769 1.769l13.267 13.561c0.589 1.474 0.885 107.016 0 108.784h104.067c9.728 0 6.191-0.589 20.932 13.856 4.127 4.127 7.37 7.96 12.087 11.498 2.063 1.474 11.203 10.024 11.203 12.087v146.226c0 2.654-13.561 14.151-16.214 16.51-5.601 5.601-10.908 10.908-16.804 16.804-5.306 5.306-2.948 3.832-16.804 3.832h-91.096c-8.55 0-7.37-0.589-7.37 2.358 0 0.295 0 0.885 0 0.885 0.295 12.677 0.589 105.247-0.295 106.426l-20.932 20.932c-2.948 2.948-13.561 12.677-14.151 15.036-47.464 0-97.582-0.59-144.751 0-5.896 0-5.012 0.589-8.255-2.359l-30.955-30.955c-3.243-2.948-2.948-2.063-2.948-7.96v-104.067z" horiz-adv-x="519" />
<glyph unicode="&#xe60a;" d="M320.425 68.873h-90.077v204.906c0 4.125 3.438 2.75 15.127 2.75 5.501 0 11.002 0 16.502 0h50.195c8.939 0.688 7.563 1.375 7.563-11.001 0-17.19-0.688-193.218 0.688-196.656zM367.182 391.36h-133.395c-2.063 0-5.501-3.438-6.876-4.813-4.813-4.125 0.688-0.688-8.251-8.252l-35.756-35.068c-13.752-11.69-27.504-29.567-40.569-38.506-1.375-0.688-2.063-2.063-3.438-2.75-2.75-3.438-6.189-8.252-10.314-8.939v-223.472h-127.894v-99.015h832.003v99.015h-86.639v221.409c0 3.438-8.251 8.251-12.377 13.065l-25.442 25.441c-2.75 2.75-4.125 4.125-6.188 6.876-2.75 2.75-4.125 3.438-6.876 6.189-8.939 8.251-16.503 16.502-25.442 25.441-4.125 4.126-25.442 24.754-27.504 24.754h-170.526v91.452h-104.516v-91.452z" horiz-adv-x="832" />
<glyph unicode="&#xe60b;" d="M222.173 115.933c7.543 0 69.943 0.685 72 0 2.743-1.372 1.372-30.858 1.372-34.971 0-12.343 0-24.686 0-37.029-6.171 2.743-28.115 0.685-36.343 0.685-8.228 0-30.172 1.372-36.343-0.685v72.686zM74.743 263.362h510.86v-72.686h-510.86v72.686zM512.231 407.364h74.058v-71.315h-74.058c-2.057 6.172-0.685 27.428-0.685 35.658s-1.372 29.486 0.685 35.657zM222.173 407.364h72.686v-71.315c-6.171 2.743-28.115 0.685-36.343 0.685s-30.172 1.372-36.343-0.685v71.315zM146.744 336.735c-7.543 0-106.972 1.371-110.4-0.686 0 0 0 0-0.685-0.685-4.8-3.429-19.2-19.2-24.686-24.686-2.057-2.057-10.972-9.6-10.972-12.343v-147.43c6.857-4.8 13.028-11.657 19.2-17.829 3.428-3.428 6.172-6.171 9.6-9.6 1.372-1.372 7.543-8.914 10.286-8.914h108.344c0-8.228-1.371-104.915 0.685-109.029l12.343-13.029c4.8-3.428 21.943-24 26.058-24h182.401c2.743 0 2.057 2.057 2.057 7.543l-0.685 65.829c0 8.914 0.685 67.886 0 72h290.744v365.488h-184.458c-3.428 0 0 0-2.743 0.685l-2.057-2.743c0 0 0 0-0.685-0.685l-13.714-13.714c-5.486-5.486-14.4-13.029-19.2-18.514-2.057-2.743-0.685-32.915-0.685-36.343 0-3.428 1.372-69.257-0.685-72.686h-63.772c-4.115 0-2.057 8.914-2.057 13.714l-0.685 126.858c0 3.428 3.428 3.428-10.971 3.428h-155.658c-2.743 0-17.143 0.685-20.571-2.057-4.114-3.428-7.543-8.228-11.657-11.657l-22.629-21.257c-2.057-2.743-0.685-10.286-0.685-14.4 0-31.543 0-63.086 0-94.629z" horiz-adv-x="661" />
<glyph unicode="&#xe60c;" d="M283.436 382.31c1.718 3.435 1.718 0.859 6.871 6.012 2.577 2.577 3.435 3.435 6.012 6.012l12.884 12.884c0.859 0.859 0.859 0.859 1.718 1.718l3.435 3.435c4.295 3.435 6.012 2.576 12.024 2.576h112.515c5.154 0 6.871-0.859 12.024-0.859v-85.889c-14.601 0.859-59.264 0-76.442 0-3.435 0-2.577 2.577-2.577-8.589v-281.718c-2.577 0-1.718 0-3.435 0-1.718 0-1.718 0-3.435 0h-206.135c-10.307 0-6.871-2.577-6.871 18.896v270.553h-81.595v85.889c6.013 0 9.448 0.859 16.319 0.859h117.669l7.73-6.012c2.577-1.718 4.294-4.294 6.871-6.871 6.871-6.871 37.791-38.651 42.945-42.086l24.049 23.19zM0 443.292v-184.663h79.877v-288.589h359.019c0 3.435 0 1.718 0 4.295 0 36.074 0.859 279.142 0 284.295h72.147c3.436 0 8.589-0.859 8.589 2.577v182.086c0 2.577-7.73 7.73-9.448 10.307l-15.46 14.601c-3.435 3.435-12.884 14.601-15.46 14.601h-173.497c-2.577 0-9.448-8.589-12.024-10.307-7.73-7.73-18.896-17.178-24.908-24.049l-8.589-8.589c-6.871 5.154-41.227 43.803-44.662 43.803h-174.356c-2.577 0-12.024-11.166-15.46-14.601l-20.613-18.896c-1.718-0.859-4.295-3.435-4.295-5.153zM283.436 382.31v-0.859h0.859z" horiz-adv-x="520" />
<glyph unicode="&#xe60d;" d="M329.763 74.103c-3.584 2.688-11.649 11.649-17.026 16.13l-8.961 8.961c-2.688 2.688-0.896 0-5.377 5.377l-25.986 25.986c-2.688 1.792-3.584 2.688-6.272 5.377-24.195 25.091-51.974 49.285-76.168 74.376l-14.338 13.442c0 0 0 0 0 0l-16.13 16.13c-4.481 3.584-14.338 12.546-17.026 16.13 123.661 0 245.53 0.896 370.087 0.896l-182.803-182.804zM512.566 328.594h-369.191c5.376 7.169 17.026 17.026 24.195 24.195l16.13 16.13c2.689 2.688 5.376 4.481 8.065 7.169s25.090 26.883 29.571 27.779h210.582c6.272 0 5.377-4.481 13.442-10.753 3.584-2.689 5.377-4.481 8.065-8.065l34.051-33.156c0 0 0 0 0 0l4.481-4.481c0.896-0.896 0.896-0.896 0.896-0.896l17.922-17.026zM0 295.438c3.584-6.273 41.221-42.117 51.078-51.077 1.792-1.792 3.584-3.584 5.377-5.376 1.792-0.896 0.896-0.896 2.688-2.689l34.051-34.051c0 0 0 0 0 0l3.585-4.481c0.896-0.896 0 0 0.896-0.896l0.896-0.896c0.896-0.896 1.792-1.792 2.689-2.688 1.792-2.688 2.689-2.688 4.481-4.481 1.792-1.792 3.585-3.584 5.377-5.377l10.753-10.753c0 0 0.896-0.896 0.896-0.896l18.818-18.818c1.792-1.792 3.584-2.688 5.376-5.377l5.376-5.377c0.896-0.896 1.792-1.792 2.689-2.688l28.675-28.675c3.584-3.584 7.169-6.272 10.753-9.857l134.414-132.622c8.961 6.272 51.077 49.285 61.83 60.935l7.169 7.169c0.896 0.896 0.896 0 1.792 0.896 5.377 3.584 20.61 19.714 20.61 19.714l25.986 25.986c0 0 0 0 0 0l0.896 0.896c0.896 0.896 1.792 1.792 2.688 2.688 0 0 0 0 0 0 0 0 0.896 0.896 0.896 0.896 0.896 0.896 0 0.896 1.792 1.792 0 0 0 0 0 0l7.169 7.169c10.753 9.857 24.195 23.298 34.051 34.051l123.661 121.869c2.688 2.689 40.325 39.428 40.325 42.117s-3.585 3.584-5.376 5.377l-170.258 168.466c-1.792 1.792-9.857 11.649-12.546 11.649h-282.27c-2.689 0-20.61-19.714-24.195-22.402-11.649-11.649-23.298-23.298-34.947-34.947l-129.037-129.038z" horiz-adv-x="659" />
<glyph unicode="&#xe60e;" d="M228.995 82.536l-0.792 114.923h118.093c-1.585-3.963-0.793-102.242-0.793-114.923h-114.13c-1.585 0-1.585 0.793-2.377-0.793zM56.215 367.861c3.963 1.585 72.917 0.793 87.183 0.793 5.548 0 25.362 0.793 29.325-0.793v-120.471h-116.507v120.471zM172.723 480.406v-57.065c-47.554 0-94.316 0-141.87 0-1.585-2.377-4.755-4.756-7.925-7.926-3.171-3.17-12.681-13.473-15.851-15.059l-5.548-4.755c0 0 0 0 0 0-0.792-0.793-1.585-1.585-1.585-3.171v-171.195l3.963-2.377c0.793-0.793 2.377-1.585 3.171-2.377l15.852-11.096c0.793-0.793 0.793-0.793 1.585-1.585 8.718-7.133 9.511-4.755 26.155-4.755 40.421 0 81.635 0 122.055 0v-114.923h-172.78v-55.48h172.78v-57.065c0-1.585 0-1.585 1.585-1.585h57.857v58.65c45.969 0 91.938 0 137.907 0 1.585 3.171 2.377 2.377 3.963 3.963 3.171 3.171 0 0.793 3.963 3.963l21.399 21.399c0.793 0.793 1.585 1.585 1.585 3.171v160.099c0 2.377-3.171 3.171-5.548 6.34l-25.362 24.57c0 0 0 0-0.793 0-1.585 0.792-134.737 0-137.114 0v109.374h157.721c13.474 0 11.096-1.585 11.096 3.963 0 19.022 0 38.836 0 57.857h-168.817v57.065c0 1.585 0 1.585-1.585 1.585h-56.273c-1.585 0-1.585 0-1.585-1.585z" horiz-adv-x="401" />
<glyph unicode="&#xe60f;" d="M137.463 241.484v171.159h166.732v-171.159h-166.732zM68.114 402.314h-67.873v-82.628c0-1.476 16.23-22.132 19.181-25.084l4.427-5.902c2.951-2.951 7.378-10.329 8.853-11.804 1.475 0 32.461 0 33.936 0v-61.971c0-7.377 2.951-5.902 8.853-13.279 0 0 1.475-1.476 1.475-1.476l22.132-22.132c0 0 0 0 1.475-1.476 0 0 0 0 0 0l4.427-4.426h79.677v-134.271h-118.040v-69.349h302.478c2.951 1.476 1.476 4.426 1.476 10.329v59.020c-1.476-1.476-1.476 0-2.951 0h-95.908c-2.951 0-16.231 1.476-17.706 0v134.271h78.201c2.951 0 7.377 5.902 8.853 8.853l26.559 26.559c2.951 2.951 1.476 1.476 1.476 7.377v63.447h30.986c7.377 0 4.426-1.476 16.231 13.28l14.755 19.181c1.476 1.476 7.377 5.902 7.377 8.853v82.628h-69.349v79.677h-303.954v-79.677z" horiz-adv-x="442" />
<glyph unicode="&#xe610;" d="M378.544 343.258v-235.904h-240.019v222.189c0 2.743 0 8.229 0 10.972s1.371 1.371 1.371 1.371c69.948 1.372 144.012 0 215.331 0 4.115 0 20.573 0 21.945 0zM0 446.123v-32.917h68.577v-74.063h-68.577v-68.577c10.973 0 63.090 1.372 68.577-1.372v-79.549h-68.577v-69.948h68.577v-79.549h-49.376c-8.229 0-12.344 1.372-19.201 1.372v-34.288c0-1.372 1.371-2.743 2.743-4.115l28.802-28.803c1.372-1.372 1.372-1.372 1.372-2.743h37.032c1.371 1.372 0 68.577 0 68.577 12.344 0 68.577 1.372 75.434-1.372-2.743-1.372-1.371 0-1.371-1.372v-64.462c0-2.743 0 0-1.371-2.743h71.32v67.205c5.486 1.372 69.949 1.372 80.921 1.372v-68.577h71.32c0 10.973-1.372 63.091 1.372 68.577h80.921v-68.577h35.66c4.115 6.858 32.917 31.546 34.288 34.288v34.288c-23.316 0-45.26-1.372-68.577-1.372v79.549h64.462c5.486 0 5.486-1.372 5.486 4.115 0 10.973 1.371 58.976 0 65.834-23.316 0-46.632 0-68.577 0v79.549c5.486 2.743 58.976 1.371 68.577 1.371 1.371 2.743 1.371 67.206 0 68.577h-68.577v74.063h68.577c0 2.743 1.371 32.917 0 34.288-4.115 5.486-12.344 12.344-16.459 16.459-2.743 2.743-15.087 16.459-17.83 16.459h-34.288v-67.206h-80.921v67.206h-71.32v-67.206h-80.921c-2.743 5.486-1.371 57.605-1.371 67.206h-68.577c-2.743 0-1.371-1.372-1.371-2.743v-63.091c0 0 0-1.372 0-2.743h-75.434v64.462c0 4.115 0 2.743-4.115 2.743h-32.917c-2.743-4.114-32.917-31.546-32.917-34.288z" horiz-adv-x="520" />
<glyph unicode="&#xe611;" d="M393.364 90.349h58.779v-55.764h-58.779c-1.507 3.014-1.507 51.243 0 55.764zM452.142 417.398v-263.75c-4.522 1.507-13.565 0-19.593 0h-367.743c-3.014 0-1.507 3.014-1.507 4.522v251.692c0 1.507 0 1.507 0 3.014 0 4.522 0 3.014 15.072 3.014h372.264zM-1.507-28.716c171.814 0 343.628 0 515.442 0 4.521 0 3.014-1.507 3.014 12.057v500.371h-518.457v-512.428z" horiz-adv-x="519" />
<glyph unicode="&#xe612;" d="M61.958 248.63h104.49v-219.428c-6.966 3.483-41.796 0-52.245 0-10.449 0-48.762 0-52.245 0v219.429zM54.992 367.052h-27.864l-24.381-24.381c0 0-3.483-3.483-3.483-3.483v-369.197c0 0 0-3.483 3.483-3.483h229.877v372.68c-3.483 3.483-27.864 24.381-27.864 27.864h-24.381v111.456c0 0 0 3.483-3.483 3.483h-118.422v-114.939z" horiz-adv-x="232" />
<glyph unicode="&#xe613;" d="M417.548 37.727c-1.992 0-65.743 0-67.736 0v239.066h-71.72v-241.059c-1.992 1.992 0 0-7.969 0h-59.767c-1.992 0-1.992-1.992-1.992 1.992v143.44h-69.727v-145.432c-5.976-1.992-55.782 0-69.728 0v59.767c0 9.961 0 5.976-1.992 7.969-1.992 0-61.759 0-69.728 0 0-41.837 0-87.658 0-129.494 0-3.985 0-5.976 1.992-5.976h486.101v512h-69.728v-444.264z" horiz-adv-x="489" />
<glyph unicode="&#xe614;" d="M366.432 182.223c12.214 0 22.393 0 34.608 0h30.536c0 0 2.036 0 2.036 0 2.036 0 0 0 2.036 0v-63.108h-69.215v63.108zM150.644 182.223v-63.108h-69.215v61.072c0 2.036 0 2.036 6.107 2.036h36.643c6.107 0 20.357 0 24.429 0zM109.93 414.296h297.217v-120.108h-297.217v120.108zM504.861 259.58c-2.036 2.036 0 2.036-2.036 4.072s-2.036 0-4.072 2.036l-2.036 2.036c-8.143 6.107-2.036 2.036-6.107 6.107v0c0 0 0 0 0 0l-2.036 2.035c0 0 0 0-2.036 2.036 0 0 0 0-2.036 2.035l-6.107 6.107c-2.036 0 0 0-2.036 2.036v154.716c-4.072 2.035-14.25 14.25-18.322 16.286-2.036 2.036-2.036 0-2.036 2.036l-14.25 14.25c-2.036 2.036-4.072 4.072-6.107 4.072h-354.217c-2.035 0-20.358-20.358-22.393-20.358 0 0-6.107-8.143-12.215-12.214 0 0 0 0-2.035-2.036-2.035 0 0 0-2.035-2.035l-4.072-4.072c-2.035 0 0 0-2.035-2.036v-148.608l-18.322-20.358c0 0-2.035-2.036-2.035-2.036l-20.358-22.393c-2.035-2.036 0-12.214 0-16.286v-177.109h38.679v-83.465h83.465v81.43h268.716c8.143 0 8.143 2.036 8.143-14.25v-67.179h81.43v83.465h28.5c4.072 0 6.107 0 10.179 0v195.43l-10.178 10.178zM500.79 263.652h2.036l-2.036 2.036zM506.897 259.58v0z" horiz-adv-x="519" />
<glyph unicode="&#xe800;" d="M329.216 242.432q0 52.736-37.888 90.112t-90.112 37.888-90.624-37.888-37.376-90.112 37.376-90.624 90.624-37.376 90.112 37.376 37.888 90.624zM475.648 4.352q0-14.848-11.264-25.6t-25.6-10.752q-15.36 0-25.6 10.752l-97.792 97.792q-51.2-35.328-114.176-35.328-40.96 0-78.336 15.872t-64 43.008-43.008 64-15.872 78.336 15.872 77.824 43.008 64.512 64 43.008 78.336 15.872 77.824-15.872 64.512-43.008 43.008-64.512 15.872-77.824q0-62.976-35.328-114.176l97.792-97.792q10.752-10.752 10.752-26.112z" horiz-adv-x="475" />
<glyph unicode="&#xe801;" d="M477.184 318.208q0-11.264-7.68-19.456l-245.76-245.76q-8.192-7.68-19.456-7.68t-19.456 7.68l-142.336 142.336q-7.68 8.192-7.68 19.456t7.68 19.456l38.912 38.912q8.192 8.192 19.456 8.192t19.456-8.192l83.968-84.48 187.392 187.904q8.192 8.192 19.456 8.192t19.456-8.192l38.912-38.912q7.68-8.192 7.68-19.456z" />
<glyph unicode="&#xe802;" d="M370.688 102.144q0-11.264-7.68-19.456l-38.912-38.912q-8.192-7.68-19.456-7.68t-19.456 7.68l-83.968 84.48-83.968-84.48q-8.192-7.68-19.456-7.68t-19.456 7.68l-38.912 38.912q-8.192 8.192-8.192 19.456t8.192 19.456l83.968 83.968-83.968 83.968q-8.192 8.192-8.192 19.456t8.192 19.456l38.912 38.912q8.192 8.192 19.456 8.192t19.456-8.192l83.968-83.968 83.968 83.968q8.192 8.192 19.456 8.192t19.456-8.192l38.912-38.912q7.68-7.68 7.68-19.456t-7.68-19.456l-83.968-83.968 83.968-83.968q7.68-7.68 7.68-19.456z" horiz-adv-x="402" />
<glyph unicode="&#xe803;" d="M146.432 123.648v-64q0-7.68-5.632-12.8t-12.8-5.632h-73.216q-7.168 0-12.8 5.632t-5.632 12.8v64q0 7.168 5.632 12.8t12.8 5.12h73.216q7.68 0 12.8-5.12t5.632-12.8zM154.624 425.216l-7.68-219.648q-0.512-7.168-6.144-12.8t-12.8-5.12h-73.216q-7.168 0-12.8 5.12t-6.144 12.8l-7.68 219.648q-0.512 7.168 4.608 12.8t12.8 5.632h91.648q7.168 0 12.8-5.632t4.608-12.8z" horiz-adv-x="183" />
<glyph unicode="&#xe804;" d="M332.8 147.2q31.744 0 54.272-22.016t22.528-54.784q0-31.744-22.528-54.272t-54.272-22.528-54.272 22.528-22.528 54.272q0 3.072 0.512 7.168t0.512 6.144l-133.12 79.872q-21.504-16.384-47.104-16.384-31.744 0-54.272 22.528t-22.528 54.272 22.528 54.272 54.272 22.528q27.648 0 47.104-15.36l133.12 79.872q0 2.048-0.512 6.144t-0.512 6.144q0 31.744 22.528 54.272t54.272 22.528 54.272-22.016 22.528-54.784q0-31.744-22.528-54.272t-54.272-22.528q-26.624 0-46.080 16.384l-134.144-79.872q1.024-4.096 1.024-13.312 0-8.192-1.024-12.288l134.144-79.872q18.432 15.36 46.080 15.36z" horiz-adv-x="410" />
<glyph unicode="&#xe805;" d="M529.408 239.36q11.264-14.848 0-30.208-3.584-5.632-17.408-23.552t-45.568-51.2-65.024-55.808q-57.344-40.96-133.632-40.96-76.8 0-134.144 40.96-32.768 23.040-65.024 55.808t-45.568 51.2-17.408 23.552q-11.264 14.848 0 30.208 3.072 5.632 16.896 23.552t46.080 50.688 65.024 55.296q57.856 41.984 134.144 41.984 75.776 0 133.632-41.984 32.768-23.040 65.024-55.296t46.080-50.688 16.896-23.552zM267.776 130.304q38.4 0 65.536 27.648t27.136 66.048q0 38.912-27.136 66.048t-65.536 27.136q-38.912 0-66.048-27.136t-27.136-66.048q0-38.4 27.136-66.048t66.048-27.648zM321.024 224q0-22.016-15.36-37.888t-37.888-15.36-37.888 15.36-15.872 37.888 15.872 37.376 37.888 16.384q22.016 0 37.376-15.872t15.872-37.888z" horiz-adv-x="535" />
<glyph unicode="&#xe806;" d="M207.36 215.808h109.056l-157.696-156.672-158.72 157.696h109.056l-1.536 172.544h99.84v-173.568z" horiz-adv-x="317" />
<glyph unicode="&#xe807;" d="M194.56 346.368h-35.84c-27.648 0-30.72-16.896-30.72-33.792v-26.624h66.56l-6.144-80.896h-60.416v-178.176h-81.408v178.176h-46.592v80.896h46.592v59.904c0 48.64 27.648 75.264 81.408 75.264h66.56v-74.752z" horiz-adv-x="195" />
<glyph unicode="&#xe808;" d="M0 73.984q0-19.968 8.704-34.816 15.36-28.16 53.76-41.984 32.256-13.312 69.632-13.312t68.096 10.24 51.2 26.624 30.72 37.888 11.264 44.544q0 32.256-17.408 55.296-13.312 18.432-35.328 34.816-7.68 5.632-16.384 14.336-17.408 14.336-17.408 28.16 0 16.384 23.040 37.376 7.68 6.656 18.944 18.432 9.728 10.752 16.384 27.648t6.144 36.864q0 26.112-11.264 49.152t-31.744 35.84h38.912l38.912 22.528h-125.952q-27.136 0-54.272-5.632-39.936-8.704-67.072-40.96t-27.136-72.192q0-41.984 30.208-70.656t74.24-28.16q4.096 0 19.968 1.536-1.024-3.072-4.608-12.288-2.048-5.632-2.048-12.8 0-19.456 18.432-43.008-18.944 0-43.008-3.584-56.32-9.216-86.528-30.72-17.408-12.8-28.16-32.768t-10.24-38.4zM53.248 87.296q0 17.408 8.192 31.232 13.824 24.064 48.128 34.816 29.696 9.216 61.44 9.216 4.608 0 14.336-1.024 0.512 0 8.192-5.632t10.24-6.656q7.168-4.608 18.432-13.824 0.512-1.024 4.608-4.608t6.656-6.144 4.096-5.12q1.024-1.024 1.536-2.56t2.048-3.072 2.56-3.584q3.072-4.608 5.12-9.728 3.584-12.288 3.584-22.016 0-17.92-7.68-31.232t-21.504-21.504q-25.6-15.36-61.44-15.36-38.912 0-71.168 17.92-16.896 8.704-27.136 24.064t-10.24 34.816zM84.48 375.552q0 29.184 15.36 48.128t41.472 19.456q18.432 0 33.792-11.264t24.576-30.72q18.432-37.888 18.432-74.24 0-30.208-13.312-47.104t-39.424-16.384q-14.336 0-28.16 7.168-23.040 13.312-38.912 46.592-13.824 29.184-13.824 58.368zM295.424 353.536h73.728v-74.24h36.864v74.24h73.728v36.864h-73.728v73.216h-36.864v-73.216h-73.728v-36.864z" horiz-adv-x="480" />
<glyph unicode="&#xe809;" d="M0 296.192q0 32.256 13.824 64t38.912 58.88 66.56 44.032 91.136 16.896q81.408 0 133.632-50.176t52.224-118.272q0-87.552-44.032-144.384t-114.688-57.344q-23.040 0-43.008 10.752t-28.672 26.112l-20.48-80.896q-2.56-9.728-6.656-19.456t-8.704-19.456-9.728-17.408-9.728-15.36-8.704-12.288-6.656-8.192l-3.072-4.096q-1.536-2.048-4.096-1.536t-3.072 3.072q0 0.512-0.512 7.168t-1.536 13.824-1.536 19.456-0.512 22.528 1.536 24.576 3.584 24.576q5.632 24.064 37.888 160.256-4.096 8.192-6.656 19.968t-2.56 18.432l-0.512 7.68q0 32.768 16.896 54.784t39.936 21.504q18.944 0 29.696-12.288t10.24-31.744q0-11.776-4.096-28.672t-11.776-39.424-10.24-36.352q-5.12-23.040 9.216-39.936t37.376-16.896q40.448 0 67.072 46.080t26.112 110.592q0 49.664-32.256 81.408t-90.112 31.232q-64.512 0-104.448-41.472t-40.448-99.328q0-34.304 19.456-57.856 6.656-7.68 4.096-16.384-1.024-2.56-3.072-11.776t-3.072-11.776q-1.024-5.632-5.12-7.168t-9.216 0q-30.208 12.288-45.056 42.496t-15.36 69.632z" horiz-adv-x="397" />
<glyph unicode="&#xe810;" d="M0 36.608q0 28.16 19.968 48.128t48.128 19.968 48.128-19.968 19.968-48.128q0-28.672-19.968-48.64t-48.128-19.456-48.128 19.968-19.968 48.128zM0 208.128v97.792q91.648 0 169.472-45.056t123.392-123.392 45.056-169.472h-98.304q0 99.328-70.144 169.472-70.656 70.656-169.472 70.656zM0 381.696v98.304q103.936 0 198.656-40.448t163.328-109.568 109.568-163.328 40.448-198.656h-98.304q0 83.968-32.768 160.768t-88.064 132.096-132.096 88.064-160.768 32.768z" />
<glyph unicode="&#xe811;" d="M0.512 317.184q3.584 56.832 38.4 93.696 48.128 40.96 108.544 35.84t97.28-50.176q19.456 25.088 47.104 40.448 57.856 22.016 111.104 1.536t76.8-71.68q15.36-54.272 5.12-101.888t-39.936-89.088q-34.816-48.128-89.088-94.208-27.136-25.088-63.488-52.736t-47.616-29.184q-6.656 1.024-14.336 6.144t-17.92 12.8-12.288 10.24q-135.168 101.888-178.176 182.784-25.088 49.152-21.504 105.472z" horiz-adv-x="489" />
<glyph unicode="&#xe812;" d="M462.848 363.264q-18.944-27.648-46.080-47.616 0-4.096 0-11.776 0-37.376-10.752-74.24t-32.768-71.168-52.736-59.904-73.728-41.984-92.672-15.36q-77.312 0-141.312 41.472 9.728-1.536 22.016-1.536 64.512 0 114.688 39.424-30.208 1.024-53.76 18.432t-32.768 45.568q9.728-1.024 17.408-1.024 12.288 0 24.576 3.072-32.256 6.656-53.248 31.744t-20.992 58.88v1.024q19.456-10.752 41.984-11.776-18.944 12.8-30.208 32.768t-11.264 44.032q0 25.088 12.8 46.592 34.816-42.496 83.968-68.096t106.496-28.16q-2.56 10.752-2.56 20.992 0 38.4 27.136 65.024t65.024 27.136q40.448 0 67.584-29.184 31.232 6.144 58.368 22.528-10.24-32.768-40.448-51.2 26.624 3.072 53.248 14.336z" horiz-adv-x="475" />
<glyph unicode="&#xe813;" d="M0 93.952v365.056h512v-365.056h-242.176l-163.84-104.96v104.96h-105.984z" />
<glyph unicode="&#xe814;" d="M182.784 68.352q0-1.024 0.512-5.632t0-7.168-1.024-7.168-2.56-5.632-6.144-1.536h-91.136q-34.304 0-58.368 24.064t-24.064 58.368v200.704q0 34.304 24.064 58.368t58.368 24.064h91.136q4.096 0 6.656-2.56t2.56-6.656q0-1.024 0.512-5.632t0-7.68-1.024-6.656-2.56-5.632-6.144-1.536h-91.136q-18.944 0-32.256-13.824t-13.824-32.256v-200.704q0-18.944 13.824-32.256t32.256-13.824h89.088t3.072 0 3.584-1.024 2.048-1.536 2.048-2.56 0.512-4.096zM448 224q0-7.168-5.632-12.8l-155.136-155.648q-5.632-5.12-12.8-5.12t-12.8 5.12-5.632 12.8v82.432h-128q-7.168 0-12.8 5.632t-5.632 12.8v109.568q0 7.68 5.632 12.8t12.8 5.632h128v82.432q0 7.168 5.632 12.8t12.8 5.12 12.8-5.12l155.136-155.648q5.632-5.12 5.632-12.8z" horiz-adv-x="475" />
<glyph unicode="&#xe815;" d="M292.352 51.456q-11.776 68.608-39.936 142.336h-0.512l-0.512-0.512q-4.608-1.536-12.288-4.608t-28.672-13.824-39.424-23.552-37.376-32.768-29.184-41.984l-4.608 3.072q52.736-43.008 119.808-43.008 37.376 0 72.704 14.848zM239.616 225.024q-6.144 13.824-14.848 31.744-89.088-26.624-192.512-26.624 0-2.048 0-6.144 0-35.328 12.288-67.584t35.328-57.344q14.336 25.088 35.328 47.616t40.96 35.328 37.376 23.040 28.16 13.824l10.752 3.584q1.024 0.512 3.584 1.024t3.584 1.536zM209.408 285.44q-34.304 60.928-70.144 108.032-39.424-18.432-66.56-53.248t-36.864-77.824q86.528 0 173.568 23.040zM404.48 194.304q-59.904 16.896-116.736 8.192 25.088-68.096 36.352-134.144 31.744 21.504 53.248 54.272t27.136 71.68zM174.592 405.76q-0.512 0-0.512 0t0.512 0zM343.040 364.8q-52.736 46.592-123.392 46.592-22.016 0-44.544-5.632 37.376-48.128 70.144-109.056 19.968 7.68 37.376 17.408t27.648 17.408 18.432 16.384 10.752 11.776zM407.040 226.048q-1.024 66.048-42.496 117.248l-0.512-0.512q-2.56-3.584-5.632-7.168t-12.288-12.288-20.48-17.408-28.16-18.432-37.888-18.432q7.168-15.36 12.8-27.136 0.512-2.048 1.536-5.12t2.56-4.608q10.24 1.024 20.992 2.048t20.992 0.512 19.968-0.512 17.92-1.024 16.384-1.536 13.824-2.048 10.24-1.536 7.168-1.536zM438.784 224q0-59.904-29.184-110.080t-79.872-79.872-110.080-29.696-110.592 29.696-79.36 79.872-29.696 110.080 29.696 110.080 79.36 79.872 110.592 29.696 110.080-29.696 79.872-79.872 29.184-110.080z" horiz-adv-x="439" />
<glyph unicode="&#xe816;" d="M206.848 242.432q28.672 0 43.52-20.48t15.872-40.96v-20.48q0-28.672-10.24-49.152t-25.6-29.696-30.208-13.824-25.088-5.632h-175.104v330.752h164.864q39.936 0 65.024-22.528t25.088-65.536q0-25.6-11.776-41.472t-24.064-18.944zM72.704 334.592v-73.728h87.040q13.312 0 20.48 7.68t7.168 31.232q0 15.36-5.632 24.064t-11.776 9.728l-5.12 1.024h-92.16zM160.768 121.6q37.888 0 37.888 43.008 0 20.48-8.192 31.744t-16.384 12.288l-9.216 1.024h-92.16v-88.064h88.064zM400.384 308.992q35.84 0 60.416-14.848t34.304-35.84 13.824-41.984 3.072-35.328l-1.024-15.36h-163.84q0-27.648 13.824-41.984t28.16-14.336l13.312-1.024q23.552 0 36.352 8.704t13.824 16.896l1.024 9.216h55.296q0-41.984-27.136-63.488t-53.76-22.528l-27.648-1.024q-36.864 0-62.464 12.8t-36.864 31.744-16.896 37.376-5.632 30.72v13.312q0 5.12 0.512 13.824t7.168 30.72 18.432 38.4 36.864 30.208 58.88 13.824zM450.56 209.664q0 2.048-0.512 5.632t-3.072 12.288-6.656 15.36-14.336 12.288-23.552 5.632q-21.504 0-35.84-12.8t-17.408-26.112l-3.072-12.288h104.448zM463.872 373.504v-39.936h-131.072v39.936h131.072z" />
<glyph unicode="&#xe817;" d="M99.84 301.312v-283.136h-94.208v283.136h94.208zM105.984 388.864q0-20.992-14.848-34.816t-38.4-13.824h-0.512q-23.552 0-37.888 13.824t-14.336 34.816 14.848 34.816 38.4 13.824 37.888-13.824 14.848-34.816zM438.784 180.48v-162.304h-93.696v151.552q0 30.208-11.776 47.104t-36.352 16.896q-17.92 0-29.696-9.728t-18.432-24.576q-3.072-8.704-3.072-23.040v-158.208h-94.208q0.512 114.176 0.512 184.832t0 84.48l-0.512 13.824h94.208v-40.96h-0.512q5.632 9.216 11.776 15.872t15.872 14.848 25.088 12.288 32.768 4.608q48.64 0 78.336-32.256t29.696-95.232z" horiz-adv-x="439" />
<glyph unicode="&#xe818;" d="M40.448 418.56h307.712c28.672 0 40.96-12.288 40.96-40.448v-307.712c0-27.136-12.288-40.448-40.96-40.448h-105.472v126.464h49.664v60.928h-49.664v40.448c0 12.288 2.56 24.064 23.040 24.064h26.624v57.344h-56.832c-40.448 0-61.44-20.48-61.44-57.344v-64.512h-40.96v-60.928h40.96v-126.464h-133.632c-26.112 0-40.448 13.312-40.448 40.448v307.712c0 28.16 14.336 40.448 40.448 40.448z" horiz-adv-x="389" />
<glyph unicode="&#xe819;" d="M54.272 311.552l114.176 114.688c20.992 20.992 55.296 20.992 76.288 0l22.528-22.528-43.008-43.52-8.192 7.68c-5.12 5.632-13.824 5.632-18.944 0l-84.992-84.992c-5.12-5.12-5.12-13.824 0-18.944l7.68-7.68-43.008-43.52-22.528 22.528c-21.504 20.992-21.504 55.296 0 76.288v0zM338.944 96.512h32.256v32.256c0 13.824 11.264 25.088 25.6 25.088h0.512c13.824 0 25.088-11.264 25.088-25.088v-32.256h32.256c13.824 0 25.6-11.776 25.6-25.6v-0.512c0-13.824-11.776-25.088-25.6-25.088h-32.256v-32.256c0-14.336-11.264-25.6-25.088-25.6h-0.512c-14.336 0-25.6 11.264-25.6 25.6v32.256h-32.256c-13.824 0-25.088 11.264-25.088 25.088v0.512c0 14.336 11.264 25.6 25.088 25.6v0zM142.336 243.968l-88.064-88.064c-11.776-11.776-11.776-30.72 0-41.984l1.536-1.536c11.264-11.776 30.208-11.776 41.984 0l88.064 88.064c11.264 11.776 11.264 30.208 0 41.984l-1.536 1.536c-11.776 11.264-30.208 11.264-41.984 0v0zM236.544 337.664c-11.776-11.264-11.776-30.208 0-41.984l1.024-1.024c11.776-11.776 30.72-11.776 41.984 0l88.064 88.064c11.776 11.264 11.776 30.208 0 41.984l-1.024 1.024c-11.776 11.776-30.72 11.776-41.984 0l-88.064-88.064zM302.080 282.368l7.68-8.192c5.632-5.12 5.632-13.824 0-18.944l-84.992-84.992c-5.12-5.12-13.824-5.12-18.944 0l-7.68 7.68-43.52-43.008 22.528-22.528c20.992-21.504 55.296-21.504 76.288 0l114.688 114.176c20.992 20.992 20.992 55.296 0 76.288l-22.528 22.528-43.52-43.008z" />
</font>
</defs>
</svg>
